новый адрес пиратбит piratbit
Мега распродажа FORZA HORIZON 4 ULTIMATE+ВСЕ DLC+ОНЛАЙН всего за 499р. 349 руб. (супер цена). Внимание количество ограничено!!!

iTunes

1+1

iTunes

мы

iTunes

1

iTunes

Чернобыль

iTunes

Ральф против интернета

Лицензия

ПШазам

Лицензия

Игра престолов

Лицензия

30
pack

ВАЖНО

!!Акция!!

Alien_RageХит недели

RePack

Resident Evil 21

ИГРА 18+

pack

RePack

Metro:Exodus

!!Акция!!

Alien_Rage

RePack

fifa19

RePack

Assassins Creed: Odyssey

RePack

NEED FOR SPEED™ PAYBACK

3 сезон

9 сезон

Бесстыжие 9 сезон

Все сериалы

все сериалы на PB.wtf

RePack

FAR CRY 5
Ребята, катастрофически не хватает 1900р. для оплаты серверов за Октябрь (всвязи с блокировками трафик упал в 3 раза), 1-2р., выручайте.
  

Приключения Артемки (Андрей Апсолон) [1956, драма, детский, SATRip от AVP Studio] pb.wtf

Приключения Артемки через торрент pb.wtf

Размер: 1.09 GB | Добавлен: 2 года 10 мес. назад | Торрент скачан:7 раз
Скачать  

22-12-2016 12:13 Приключения Артемки Скачать торрент  

Приключения Артемки
Страна: СССР
Производство: Ленфильм

Жанр: драма, детский
Год выпуска: 1956
Продолжительность: 01:16:46

Перевод: Не требуется
Cубтитры: нет
Оригинальная аудиодорожка: русский

Режиссер: Андрей Апсолон

В ролях:
Борис Александров, Тито Ромалио, Сергей Плотников, Пётр Савин, Михаил Трояновский, Тамара Ларкина, Леонид Галлис, Виталий Полицеймако, Владимир Муковозов, Иван Назаров, Олег Жаков, Анатолий Абрамов, Марк Перцовский, Борис Дмоховский, Тамара Алёшина, Анатолий Федосеев...
Полный список актёров

Описание:
По повести И. Василенко «Артёмка в цирке». На шумном базаре приморского города стояла дощатая будка «холодного сапожника», тринадцатилетнего мальчика Артёмки. Однажды в порт пришла шхуна «Красотка». С нее сошли двое пассажиров - профессиональный борец, чернокожий Чемберс Пепс, и революционер Попов. Случай столкнул Артёмку с Пепсом, и вскоре мальчик по его протекции стал завсегдатаем местного цирка. Здесь он познакомился с клоуном Кубышкой и его дочерью, цирковой наездницей Лясей. А вскоре Артёмка стал помогать и революционеру Попову.

Источник: DVB
Качество видео: SATRip
Формат видео: AVI

Видео: 688x512 (4:3), 25 fps, XviD ~ 1831 kbps avg, 0.208 bit/pixel
Аудио: 48 kHz, Dolby Digital AC3 2.0, 192 kbps

Раздача от:
Общее
Полное имя : Priklyucheniya.Artemki.1956.SATRip_[New-team]_by_AVP_Studio.avi
Формат : AVI
Формат/Информация : Audio Video Interleave
Размер файла : 1,09 Гбайт
Продолжительность : 1 ч. 16 м.
Общий поток : 2032 Кбит/сек
Программа кодирования : VirtualDubMod 1.5.10.3 | www.virtualdub-fr.org || (build 2550/release)
Библиотека кодирования : VirtualDubMod build 2550/release

Видео
Идентификатор : 0
Формат : MPEG-4 Visual
Профиль формата : Advanced Simple@L5
Параметр BVOP формата : 1
Параметр QPel формата : Нет
Параметр GMC формата : Без точки перехода
Параметр матрицы формата : Выборочная
Идентификатор кодека : XVID
Идентификатор кодека/Подсказка : XviD
Продолжительность : 1 ч. 16 м.
Битрейт : 1831 Кбит/сек
Ширина : 688 пикселей
Высота : 512 пикселей
Соотношение сторон : 4:3
Частота кадров : 25,000 кадров/сек
Цветовое пространство : YUV
Субдискретизация насыщенности : 4:2:0
Битовая глубина : 8 бит
Тип развёртки : Прогрессивная
Метод сжатия : С потерями
Бит/(Пиксели*Кадры) : 0.208
Размер потока : 1005 Мбайт (90%)
Библиотека кодирования : XviD 1.2.1 (UTC 2008-12-04)

Аудио
Идентификатор : 1
Формат : AC-3
Формат/Информация : Audio Coding 3
Расширение режима : CM (complete main)
Параметр Endianness формата : Big
Идентификатор кодека : 2000
Продолжительность : 1 ч. 16 м.
Вид битрейта : Постоянный
Битрейт : 192 Кбит/сек
Каналы : 2 канала
Расположение каналов : Front: L R
Частота : 48,0 КГц
Частота кадров : 31,250 кадров/сек (1536 spf)
Битовая глубина : 16 бит
Метод сжатия : С потерями
Размер потока : 105 Мбайт (9%)
Выравнивание : Разделение по промежуткам
Продолжительность промежутка : 40 мс. (1,00 видеокадр)
Время предзагрузки промежутка : 500 мс
pb.wtf



Скачать Приключения Артемки через торрент http://s019.radikal.ru/i634/1612/f0/29ec6d36aed4.png Скачать фильм Приключения Артемки через торрент бесплантно в хорошем качестве Описание:По повести И. Василенко «Артёмка в цирке». На шумном базаре приморского города стояла дощатая будка «холодного сапожника», ... 10 10 2
Info! Золотая раздача, скачанное не засчитывается.
Торрент: Зарегистрирован [2016-12-22 12:13] · скачан: 7 раз
Статус: √ проверено
Размер: 1.09 GB
Как cкачать? Как скачать Приключения Артемки через торрент | qTorrent

% Раздел Тема Автор DL S | L
Кино СССР [ 1.09 GB ] Артемки [1956 детский SATRip-AVC от AVP Studio] AVP Studio Скачать
1 | 0
Кино СССР [ 745 MB ] Артемки [1956 детский SATRip от AVP Studio] AVP Studio Скачать
1 | 0


>> Регистрируемся здесь <<






Отзывы и комментарии о схеме читаем и пишем здесь: ---> Отзывы и комментарии о схеме

Новые благодарочки в телеграм довольных пользователей:
скриншот   скриншот   скриншот   скриншот   скриншот
    Дорогой пользователь! Огромная просьба, поблагодарите релизера, оцените раздачу и оставьте свои комментарий, если Вы скачали Приключения Артемки через торрент бесплатно! Внесите свою лепту в развитие PiratBit!
    Комментировать посты могут только пользователи прошедшие не сложную регистрацию
    Показать сообщения:    

    Приключения Артемки через торрент
    Скачать бесплатно Приключения Артемки
    Приключения Артемки скачать торрент
    Приключения Артемки смотреть онлайн
    Cкачать фильм Приключения Артемки бесплатно
    Приключения Артемки скачать торрент в хорошем качестве
    Приключения Артемки смотреть онлайн бесплатно в хорошем качестве


    Вы не можете начинать темы
    Вы не можете отвечать на сообщения
    Вы не можете редактировать свои сообщения
    Вы не можете удалять свои сообщения
    Вы не можете голосовать в опросах
    Вы не можете прикреплять файлы к сообщениям
    Вы можете скачивать файлы