Ссылка на приватное зеркало нашего сайта всего за 1$. Внимание количество ограничено!!!

2 сезон

iTunes

1 сезон

1

iTunes

iTunes

iTunes

1 сезон

RePack

30

ИГРА 18+

pack

ВАЖНО

!!Акция!!

Alien_RageХит недели

RePack

MK11
pack

Забери бонус

RePack

jed

!!Акция!!

Alien_Rage

RePack

fifa19

RePack

Assassins Creed: Odyssey

RePack

NEED FOR SPEED™ PAYBACK

4 сезон

9 сезон

Бесстыжие 9 сезон

Все сериалы

все сериалы на PB.wtf

RePack

FAR CRY 5
  

Сноуден / Snowden (Оливер Стоун) [2016 г., триллер, драма, биография, BDRip 1080p] DUB / iTunes pb.wtf

Сноуден через торрент pb.wtf

Размер: 11.31 GB | Добавлен: 3 года 10 мес. назад | Торрент скачан:754 раза
Скачать  

22-12-2016 12:21 Сноуден Скачать торрент  




Анонсы 1080p от qqss44


✘ Сноуден ✘

Информация о фильме

✦ Год выхода: 2016

✦ Название: Сноуден

✦ Жанр: Триллер, драма, биография

✦ Оригинальное название: Snowden

✦ Режиссер: Оливер Стоун

✦ В ролях: Джозеф Гордон-Левитт, Шейлин Вудли, Мелисса Лео, Закари Куинто, Том Уилкинсон, Скотт Иствуд, Рис Иванс, Николас Кейдж, Тимоти Олифант, Джеймс Батлер


Описание фильма

Он мечтал продолжить семейную традицию и посвятить свою жизнь служению Родине. Он безоговорочно верил в правительство США и поддерживал антитеррористическую программу. На заре его карьеры в спецслужбах никто, даже он сам, не мог бы предположить, что именно он, Эдвард Сноуден, совершит самое крупное разоблачение в мировой истории, обнародовав секретные документы, касающиеся тотальной слежки США за своими гражданами и гражданами других государств. Открыв миру глаза на правду, он навсегда закрыл для себя двери в счастливое будущее: отказался от карьеры, любимой девушки и Родины, которая назвала его предателем...



✦ Выпущено: США, Endgame Entertainment, KrautPack Entertainment, Vendian Entertainment

✦ Продолжительность: 02:14:50

✦ Перевод: дублированный -
|| iTunes ||



Информация о файле

✦ Формат:| MKV | x264 |

✦ Качество: BDRip 1080p

✦ Видео: X264/MPEG4-AVC | 1920x800 (2.40:1) | ~11625 kbps | 23,976 fps

✦ Аудио Rus: AC3 | 48 KHz | 5.1 (Front: L С R Side: L R) + LFE | ~384 kbps
x264 [info]: frame I:1381 Avg QP:16.03 size:239708

x264 [info]: frame P:46186 Avg QP:18.32 size: 95095

x264 [info]: frame B:146377 Avg QP:20.21 size: 48027

Общее

Уникальный идентификатор : 185873177140466896487175050724121044639 (0x8BD5DF2C67C4D410831EBC819624E69F)

Полное имя : X:ATorrentSnowden.(2016).BDRip.1080p.(qqss44).mkv

Формат : Matroska

Версия формата : Version 2

Размер файла : 11,3 Гбайт

Продолжительность : 2 ч. 14 м.

Общий поток : 12,0 Мбит/сек

Название фильма : Snowden.(2016).BDRip.1080p.(qqss44)

Дата кодирования : UTC 2016-12-21 21:34:01

Программа кодирования : mkvmerge v7.9.0 ('Birds') 64bit

Библиотека кодирования : libebml v1.3.1 + libmatroska v1.4.2

Видео

Идентификатор : 1

Формат : AVC

Формат/Информация : Advanced Video Codec

Профиль формата : High@L4.1

Параметр CABAC формата : Да

Параметр ReFrames формата : 5 кадров

Идентификатор кодека : V_MPEG4/ISO/AVC

Продолжительность : 2 ч. 14 м.

Битрейт : 11,6 Мбит/сек

Ширина : 1920 пикселей

Высота : 800 пикселей

Соотношение сторон : 2,40:1

Режим частоты кадров : Постоянный

Частота кадров : 23,976 (24000/1001) кадра/сек

Цветовое пространство : YUV

Субдискретизация насыщенности : 4:2:0

Битовая глубина : 8 бит

Тип развёртки : Прогрессивная

Бит/(Пиксели*Кадры) : 0.316

Размер потока : 10,9 Гбайт (97%)

Заголовок : Snowden.(2016).BDRip.1080p.(qqss44)

Библиотека кодирования : x264 core 148 r2744kMod b97ae06

Настройки программы : cabac=1 / ref=5 / deblock=1:-3:-3 / analyse=0x3:0x133 / me=umh / subme=11 / psy=1 / fade_compensate=0.00 / psy_rd=1.00:0.00 / mixed_ref=1 / me_range=32 / chroma_me=1 / trellis=2 / 8x8dct=1 / cqm=0 / deadzone=21,11 / fast_pskip=0 / chroma_qp_offset=-2 / threads=12 / lookahead_threads=3 / sliced_threads=0 / nr=0 / decimate=0 / interlaced=0 / bluray_compat=0 / constrained_intra=0 / bframes=10 / b_pyramid=2 / b_adapt=2 / b_bias=0 / direct=3 / weightb=1 / open_gop=0 / weightp=2 / keyint=240 / keyint_min=23 / scenecut=40 / intra_refresh=0 / rc=2pass / mbtree=0 / bitrate=11625 / ratetol=1.0 / qcomp=0.75 / qpmin=0 / qpmax=69 / qpstep=4 / cplxblur=20.0 / qblur=0.5 / ip_ratio=1.40 / pb_ratio=1.30 / aq=3:0.80

Язык : English

Default : Да

Forced : Нет

Аудио

Идентификатор : 2

Формат : AC-3

Формат/Информация : Audio Coding 3

Расширение режима : CM (complete main)

Параметр Endianness формата : Big

Идентификатор кодека : A_AC3

Продолжительность : 2 ч. 14 м.

Вид битрейта : Постоянный

Битрейт : 384 Кбит/сек

Каналы : 6 каналов

Расположение каналов : Front: L C R, Side: L R, LFE

Частота : 48,0 КГц

Частота кадров : 31,250 кадров/сек (1536 spf)

Метод сжатия : С потерями

Размер потока : 370 Мбайт (3%)

Заголовок : DUB | DD5.1 @ 384 kbps

Язык : Russian

Default : Да

Forced : Нет

Меню

00:00:00.000 : en: Chapter 1

00:07:42.379 : en: Chapter 2

00:15:49.991 : en: Chapter 3

00:20:06.038 : en: Chapter 4

00:26:32.007 : en: Chapter 5

00:30:10.976 : en: Chapter 6

00:35:30.211 : en: Chapter 7

00:41:42.875 : en: Chapter 8

00:51:45.769 : en: Chapter 9

00:59:14.301 : en: Chapter 10

01:04:44.547 : en: Chapter 11

01:12:47.822 : en: Chapter 12

01:18:07.474 : en: Chapter 13

01:25:11.398 : en: Chapter 14

01:30:30.717 : en: Chapter 15

01:38:11.427 : en: Chapter 16

01:50:06.141 : en: Chapter 17

01:57:00.472 : en: Chapter 18

02:03:22.353 : en: Chapter 19

02:07:49.161 : en: Chapter 20
Релиз от:

pb.wtf



Скачать Сноуден через торрент http://lostpic.net/orig_images/e/d/5/ed522035ca585dd79780a8bf8e55045e.jpg Скачать фильм Сноуден через торрент бесплантно в хорошем качестве Описание фильма ═Он мечтал продолжить семейную традицию и посвятить свою жизнь служению Родине. Он безоговорочно верил в правительство США ... 10 10 15
Info! Золотая раздача, скачанное не засчитывается.
Торрент: Зарегистрирован [2016-12-22 12:21] · скачан: 754 раз
Статус: √ проверено
Размер: 11.31 GB
Как cкачать? Как скачать Сноуден через торрент | qTorrent

% Раздел Тема Автор DL S | L
Фильмы 2016 [DVDrip, WEB-DLRip, HDrip] (DUB, MVO) [ 1.46 GB ] Сноуден / Snowden [2016 биография HDRip] DUB [ ] Ворон Скачать
1 | 0

28-11-2019 20:33  

Отключить всю рекламу на сайте

22-12-2016 14:58 Сноуден Скачать торрент  

норм фильм, качество отличноеpb.wtf



01-01-2017 16:13 Сноуден Скачать торрент  

Большая благодарность Ворону за раздачу)pb.wtf



20-01-2017 16:06 Сноуден Скачать торрент  

Мое по всем форматам. СПС. pb.wtf



    Дорогой пользователь! Огромная просьба, поблагодарите релизера, оцените раздачу и оставьте свои комментарий, если Вы скачали Сноуден через торрент бесплатно! Внесите свою лепту в развитие PiratBit!
    Комментировать посты могут только пользователи прошедшие не сложную регистрацию
    Показать сообщения:    

    Сноуден через торрент
    Скачать бесплатно Сноуден
    Сноуден скачать торрент
    Сноуден смотреть онлайн
    Cкачать фильм Сноуден бесплатно
    Сноуден скачать торрент в хорошем качестве
    Сноуден смотреть онлайн бесплатно в хорошем качестве


    Вы не можете начинать темы
    Вы не можете отвечать на сообщения
    Вы не можете редактировать свои сообщения
    Вы не можете удалять свои сообщения
    Вы не можете голосовать в опросах
    Вы не можете прикреплять файлы к сообщениям
    Вы можете скачивать файлы