Ссылка на приватное зеркало нашего сайта всего за 1$. Внимание количество ограничено!!!

2 сезон

iTunes

1 сезон

1

2 сезон

2 сезон

iTunes

1 сезон

RePack

30

Ultimate

ВАЖНО

ИГРА 18+

pack

RePack

MK11
pack

Забери бонус

RePack

jed

!!Акция!!

Alien_Rage

RePack

fifa19

RePack

Assassins Creed: Odyssey

RePack

NEED FOR SPEED™ PAYBACK

4 сезон

9 сезон

Бесстыжие 9 сезон

Все сериалы

все сериалы на PB.wtf

RePack

FAR CRY 5
  

Демон внутри / Вскрытие Джейн Доу / The Autopsy of Jane Doe (Андре Овредал) [2016, ужасы, WEB-DL 1080p] Профессиональный многоголосый [AlexFilm] pb.wtf

Демон внутри через торрент pb.wtf

Размер: 3.21 GB | Добавлен: 3 года 11 мес. назад | Торрент скачан:1511 раз
Скачать  

22-12-2016 14:13 Демон внутри Скачать торрент  

Демон внутри / Вскрытие Джейн Доу / The Autopsy of Jane Doe

Год выпуска: 2016
Страна: Великобритания
Жанр: ужасы

Продолжительность: 01:26:27
Перевод: Профессиональный многоголосый [AlexFilm]
Режиссер: Андре Овредал
В ролях:

Эмиль Хирш (Austin Tilden), Брайан Кокс (Tommy Tilden), Офелия Ловибонд (Emma), Майкл МакЭлхаттон (Sheriff Sheldon), Олуэн Катрин Келли (Jane Doe), Паркер Сойерс (Officer Cole), Джейн Перри (Lieutenant Wade), Ив О’Хара (Deputy Ballard, в титрах не указан)
Описание:
Патологоанатомы маленького городка получают тело жертвы таинственного убийства - красивой и молодой Джейн Доу без видимой причины смерти. Они пытаются выяснить, кто она и как умерла, обнаруживая все более причудливые подсказки, которые ведут к тайнам её жизни и смерти.
Рейтинг:

MPAA: R - Лицам до 17 лет обязательно присутствие взрослого
Качество: WEB-DL 1080p
Формат: MKV
Видео: AVC, 1920x792 (2.40:1), 4433 kbps, 23,976 fps, 0,122 bpp
Аудио №1: русский / AC3 / 5.1 / 48 kHz / 384 kbps / |MVO, AlexFilm|
Аудио №2: английский / AC3 / 5.1 / 48 kHz / 384 kbps /

General
Unique ID : 220541536537122305838497972300849013575 (0xA5EAC1426C92C348911E2158E40EE347)
Complete name : E:\The.Autopsy.of.Jane.Doe.2016.WEB-DL.1080p.Rus.Eng.AlexFilm.mkv
Format : Matroska
Format version : Version 4 / Version 2
File size : 3.21 GiB
Duration : 1 h 26 min
Overall bit rate : 5 307 kb/s
Movie name : The Autopsy of Jane Doe @ AlexFilm
Encoded date : UTC 2016-12-22 10:22:29
Writing application : mkvmerge v7.1.0 ('Good Love') 64bit built on Jul 27 2014 13:06:55
Writing library : libebml v1.3.0 + libmatroska v1.4.1
Cover : Yes
Attachments : cover_land.jpg / small_cover.jpg / small_cover_land.jpg / cover.jpg

Video
ID : 1
Format : AVC
Format/Info : Advanced Video Codec
Format profile : High@L4
Format settings, CABAC : Yes
Format settings, ReFrames : 5 frames
Codec ID : V_MPEG4/ISO/AVC
Duration : 1 h 26 min
Bit rate : 4 434 kb/s
Width : 1 920 pixels
Height : 792 pixels
Display aspect ratio : 2.40:1
Frame rate mode : Constant
Frame rate : 23.976 FPS
Color space : YUV
Chroma subsampling : 4:2:0
Bit depth : 8 bits
Scan type : Progressive
Bits/(Pixel*Frame) : 0.122
Stream size : 2.68 GiB (84%)
Title : The.Autopsy.of.Jane.Doe.2016.1080p.WEB-DL.DD5.1.H264-FGT
Language : English
Default : Yes
Forced : No
Color range : Limited
Color primaries : BT.709
Transfer characteristics : BT.709
Matrix coefficients : BT.709

Audio #1
ID : 2
Format : AC-3
Format/Info : Audio Coding 3
Mode extension : CM (complete main)
Format settings, Endianness : Big
Codec ID : A_AC3
Duration : 1 h 26 min
Bit rate mode : Constant
Bit rate : 384 kb/s
Channel(s) : 6 channels
Channel positions : Front: L C R, Side: L R, LFE
Sampling rate : 48.0 kHz
Frame rate : 31.250 FPS (1536 spf)
Compression mode : Lossy
Stream size : 237 MiB (7%)
Title : DD5.1 AlexFilm
Language : Russian
Default : Yes
Forced : No

Audio #2
ID : 3
Format : AC-3
Format/Info : Audio Coding 3
Mode extension : CM (complete main)
Format settings, Endianness : Big
Codec ID : A_AC3
Duration : 1 h 26 min
Bit rate mode : Constant
Bit rate : 384 kb/s
Channel(s) : 6 channels
Channel positions : Front: L C R, Side: L R, LFE
Sampling rate : 48.0 kHz
Frame rate : 31.250 FPS (1536 spf)
Compression mode : Lossy
Stream size : 237 MiB (7%)
Title : DD5.1 Original
Language : English
Default : No
Forced : No
pb.wtf



Скачать Демон внутри через торрент http://i1.imageban.ru/out/2016/12/23/2389314aaad619d50763652d3bdd585d.png Скачать фильм Демон внутри через торрент бесплантно в хорошем качестве Описание: Патологоанатомы маленького городка получают тело жертвы таинственного убийства - красивой и молодой Джейн Доу без видимой причины ... 9.1 10 45
Info! Золотая раздача, скачанное не засчитывается.
Торрент: Зарегистрирован [2016-12-22 14:13] · скачан: 1 511 раз
Статус: √ проверено
Размер: 3.21 GB
Как cкачать? Как скачать Демон внутри через торрент | qTorrent

% Раздел Тема Автор DL S | L
Фильмы [HD 720p, 1080p] (Хороший звук DUB, MVO) [ 10.12 GB ] Демон внутри / Вскрытие Джейн Доу / The Autopsy of Jane Doe [2016 BDRip 1080p] MVO [] bober100 Скачать
1 | 0
Фильмы 2016 [DVDrip, WEB-DLRip, HDrip] (DUB, MVO) [ 1.46 GB ] Демон внутри / Вскрытие Джейн Доу / The Autopsy of Jane Doe [2016 BDRip] многоголосый [] Twi7ter Скачать
3 | 0
Фильмы 2016 [DVDrip, WEB-DLRip, HDrip] (DUB, MVO) [ 1.65 GB ] Демон внутри / Вскрытие Джейн Доу / The Autopsy of Jane Doe [2016 BDRip-AVC] 2xMVO [ + AlexFilm] bober100 Скачать
1 | 0
Фильмы (Blu-ray, BD-Remux, HDDVD) [ 19.65 GB ] Демон внутри / Вскрытие Джейн Доу / The Autopsy of Jane Doe [2016 BD Remux 1080p] MVO [US Transfer] [] bober100 Скачать
1 | 0
Фильмы (HD 720p, 1080p) (48-60 fps) [ 13.06 GB ] Демон внутри / Вскрытие Джейн Доу / The Autopsy of Jane Doe [2016 BDRip 1080p / 60fps] MVO+2xVO sheker187 Скачать
1 | 0
Фильмы 2016 [DVDrip, WEB-DLRip, HDrip] (DUB, MVO) [ 1.42 GB ] Демон внутри / Вскрытие Джейн Доу / The Autopsy of Jane Doe [2016 BDRip] многоголосый [AlexFilm] Twi7ter Скачать
1 | 0
Фильмы [HD 720p, 1080p] (Хороший звук DUB, MVO) [ 4.91 GB ] Демон внутри / Вскрытие Джейн Доу / The Autopsy of Jane Doe [2016 BDRip 720p] MVO sheker187 Скачать
1 | 0

28-11-2019 20:33  

Отключить всю рекламу на сайте

22-12-2016 17:03 Демон внутри Скачать торрент  

killermax2013 писал(а):

Качество: WEB-DLRip

killermax2013,
1. Укажите правильно качество, в заголовке и в тех. данных.

killermax2013 писал(а):

The.Autopsy.of.Jane.Doe.2016.WEB-DL.1080p.Rus.Eng.AlexFilm.mkv

2. Сделайте отчет МедиаИнфо, он для раздач в формате MKV обязателен.

killermax2013 писал(а):

Формат: AVI
Видео: 704x288 (2.44:1), 23.976 fps, XviD build 67 ~2063 kbps avg, 0.42 bit/pixel
Аудио: 48 kHz, AC3 Dolby Digital, 3/2 (L,C,R,l,r) + LFE ch, ~384 kbps avg

3. Укажите тех. данные о файле в соответствии с отчетом МИ.
4. Сделайте самостоятельно скриншоты с раздаваемого материала и перезалейте на рекомендуемый администрацией фотохостинг.
Список рекомендованных хостингов для заливки скринов, постеров, картинок с этих хостингов, на Пиратбите!
pb.wtf





Последний раз редактировалось: -Lexx- (2016-12-23 13:11), всего редактировалось 1 раз

22-12-2016 17:29 Демон внутри Скачать торрент  

Отличный ужастик, на мой взгляд лучший за этот год. Качайте не пожалеете!!!!pb.wtf



22-12-2016 17:51 Демон внутри Скачать торрент  

Воощпе не очень . Не понравился.pb.wtf



22-12-2016 20:57 Демон внутри Скачать торрент  

мож кто картинку 1080 выложит...подожду...pb.wtf



23-12-2016 13:08 Демон внутри Скачать торрент  

killermax2013, оформление поправил, т.к. технические данные в описании не соответствовали раздаваемому материалу. Прошу вас быть внимательнее при использовании парсера.pb.wtf



23-12-2016 21:12 Демон внутри Скачать торрент  

ух свежий ужастик посмотрю отпишусь)))pb.wtf



24-12-2016 14:40 Демон внутри Скачать торрент  

фильмец хороший-но не страшный-а так все солидноpb.wtf



26-12-2016 05:13 Демон внутри Скачать торрент  

Спасибо! Посмотрим :)

P.S. Посмотрел - понравился...pb.wtf



26-01-2017 07:16 Демон внутри Скачать торрент  

Фильм огонь,в капилку!!! pb.wtf



26-01-2017 19:33 Демон внутри Скачать торрент  

Хороший фильм..походу ждать 2-ю часть стоит...pb.wtf



22-02-2017 15:17 Демон внутри Скачать торрент  

фильм более менее чем нынешние ужастики...что то есть..с 90х..когда от страха страшно выходить на улицу...pb.wtf



09-07-2017 23:01 Демон внутри Скачать торрент  

Очень неплохой ужастик,смотреть стоит!pb.wtf



    Дорогой пользователь! Огромная просьба, поблагодарите релизера, оцените раздачу и оставьте свои комментарий, если Вы скачали Демон внутри через торрент бесплатно! Внесите свою лепту в развитие PiratBit!
    Комментировать посты могут только пользователи прошедшие не сложную регистрацию
    Показать сообщения:    

    Демон внутри через торрент
    Скачать бесплатно Демон внутри
    Демон внутри скачать торрент
    Демон внутри смотреть онлайн
    Cкачать фильм Демон внутри бесплатно
    Демон внутри скачать торрент в хорошем качестве
    Демон внутри смотреть онлайн бесплатно в хорошем качестве


    Вы не можете начинать темы
    Вы не можете отвечать на сообщения
    Вы не можете редактировать свои сообщения
    Вы не можете удалять свои сообщения
    Вы не можете голосовать в опросах
    Вы не можете прикреплять файлы к сообщениям
    Вы можете скачивать файлы