Ссылка на приватное зеркало нашего сайта всего за 1$. Внимание количество ограничено!!!

2 сезон

iTunes

1 сезон

1

iTunes

iTunes

iTunes

1 сезон

RePack

30

ИГРА 18+

pack

ВАЖНО

!!Акция!!

Alien_RageХит недели

RePack

MK11
pack

Забери бонус

RePack

jed

!!Акция!!

Alien_Rage

RePack

fifa19

RePack

Assassins Creed: Odyssey

RePack

NEED FOR SPEED™ PAYBACK

4 сезон

9 сезон

Бесстыжие 9 сезон

Все сериалы

все сериалы на PB.wtf

RePack

FAR CRY 5
  

Йойо / Yoyo (Пьер Этекс) [1965, драма, мелодрама, комедия, семейный, BDRip 1080p by msltel] DVO, VO pb.wtf

Йойо через торрент pb.wtf

Размер: 11.75 GB | Добавлен: 3 года 10 мес. назад | Торрент скачан:6 раз
Скачать  

23-12-2016 08:16 Йойо Скачать торрент  

Название: Йойо
Оригинальное название: Yoyo
Год выпуска: 1965
Страна: Франция
Жанр: драма, мелодрама, комедия, семейный
Продолжительность: 01:38:15
Перевод: профессиональный двухголосый, любительский одноголосый

Режиссёр: Пьер Этекс

В ролях: Пьер Этекс, Клодин Оже, Люси Клейн, Филипп Дионне, Амеде, Байксас, Филипп Кастелли, Люк Делюмо, Габриель Дулсе, Франсуа Лаланд, Клод Массо, Пьер Монкорбье, Анри Роже, Жорж Лориот

Описание: У человека есть всё: десятки служащих, дворец, огромный лес, сады, озеро, механические игрушки, музыканты, танцовщицы. У него есть всё. Кроме любви. Оставаясь один, он сидит за столом, вздыхая и глядя на фотографию симпатичной девушки. Однажды мимо проезжал цирк. Он пригласил его в свой дворец и узнал в наезднице девушку на фотографии. У неё есть сын, Йо-йо, который случайно забредёт во дворец и потрясённо будет разглядывать там богатства. Наступает мировой кризис, и миллионер разоряется. Найдя мать с мальчиком, он путешествует с ними, выступая как бродячие артисты. Проходят ещё годы. Начинается война. Йо-йо возвращается в отцовский замок, который в запустении. Начав с нуля, Йойо прославится как великий клоун, артист, миллионер. Но чего-то ему будет не хватать...



Качество: BDRip 1080p Сравнение с исходником
Формат: MKV
Видео: MPEG-4 AVC, 16 Mбит/с, 1792x1080, 23,976 кадра/с
Аудио 1: русский, AC3, 192 kbps, 2 ch, 48 kHz [профессиональный двухголосый, студия "Лексикон"]
Аудио 2: русский, AC3, 160 kbps, 2 ch, 48 kHz [любительский одноголосый, А. Васильев]
Аудио 3: французский, DTS, 768 kbps, 1 ch, 48 kHz [оригинал]
Субтитры 1: русские
Субтитры 2: английские
Имеются неименованные главы/чаптеры.
Общее
Уникальный идентификатор : 218179701309997664913132192576029915251 (0xA423E1CAD1F07BAC82326D6B47D8F873)
Полное имя : D:\Video\ЙоЙо.1965.BDRip.1080p by msltel.mkv
Формат : Matroska
Версия формата : Version 4 / Version 2
Размер файла : 11,8 Гбайт
Продолжительность : 1 ч. 38 м.
Общий поток : 17,1 Мбит/сек
Название фильма : Rip by msltel
Дата кодирования : UTC 2016-12-23 03:17:18
Программа кодирования : mkvmerge v8.2.0 ('World of Adventure') 64bit
Библиотека кодирования : libebml v1.3.1 + libmatroska v1.4.2

Видео
Идентификатор : 1
Формат : AVC
Формат/Информация : Advanced Video Codec
Профиль формата : High@L4.1
Параметр CABAC формата : Да
Параметр ReFrames формата : 4 кадра
Идентификатор кодека : V_MPEG4/ISO/AVC
Продолжительность : 1 ч. 38 м.
Битрейт : 16,0 Мбит/сек
Ширина : 1792 пикселя
Высота : 1080 пикселей
Соотношение сторон : 5:3
Режим частоты кадров : Постоянный
Частота кадров : 23,976 (24000/1001) кадра/сек
Цветовое пространство : YUV
Субдискретизация насыщенности : 4:2:0
Битовая глубина : 8 бит
Тип развёртки : Прогрессивная
Бит/(Пиксели*Кадры) : 0.345
Размер потока : 11,0 Гбайт (93%)
Библиотека кодирования : x264 core 146 r2538 121396c
Настройки программы : cabac=1 / ref=4 / deblock=1:-3:-3 / analyse=0x3:0x113 / me=umh / subme=9 / psy=1 / psy_rd=1.00:0.15 / mixed_ref=1 / me_range=32 / chroma_me=1 / trellis=1 / 8x8dct=1 / cqm=0 / deadzone=21,11 / fast_pskip=0 / chroma_qp_offset=-3 / threads=6 / lookahead_threads=1 / sliced_threads=0 / nr=0 / decimate=1 / interlaced=0 / bluray_compat=0 / constrained_intra=0 / bframes=16 / b_pyramid=2 / b_adapt=2 / b_bias=0 / direct=1 / weightb=0 / open_gop=0 / weightp=2 / keyint=230 / keyint_min=23 / scenecut=40 / intra_refresh=0 / rc_lookahead=40 / rc=crf / mbtree=0 / crf=19.4 / qcomp=0.60 / qpmin=0 / qpmax=69 / qpstep=4 / vbv_maxrate=50000 / vbv_bufsize=62500 / crf_max=0.0 / nal_hrd=none / filler=0 / ip_ratio=1.40 / pb_ratio=1.30 / aq=1:1.00
Язык : French
Default : Да
Forced : Нет

Аудио #1
Идентификатор : 2
Формат : AC-3
Формат/Информация : Audio Coding 3
Расширение режима : CM (complete main)
Параметр Endianness формата : Big
Идентификатор кодека : A_AC3
Продолжительность : 1 ч. 38 м.
Вид битрейта : Постоянный
Битрейт : 192 Кбит/сек
Каналы : 2 канала
Расположение каналов : Front: L R
Частота : 48,0 КГц
Частота кадров : 31,250 кадров/сек (1536 spf)
Метод сжатия : С потерями
Размер потока : 135 Мбайт (1%)
Заголовок : DVO (студия "Лексикон")
Язык : Russian
Default : Да
Forced : Нет

Аудио #2
Идентификатор : 3
Формат : AC-3
Формат/Информация : Audio Coding 3
Расширение режима : CM (complete main)
Параметр Endianness формата : Big
Идентификатор кодека : A_AC3
Продолжительность : 1 ч. 38 м.
Вид битрейта : Постоянный
Битрейт : 160 Кбит/сек
Каналы : 2 канала
Расположение каналов : Front: L R
Частота : 48,0 КГц
Частота кадров : 31,250 кадров/сек (1536 spf)
Метод сжатия : С потерями
Размер потока : 112 Мбайт (1%)
Заголовок : любительский одноголосый ,А. Васильев
Язык : Russian
Default : Нет
Forced : Нет

Аудио #3
Идентификатор : 4
Формат : DTS
Формат/Информация : Digital Theater Systems
Режим : 16
Параметр Endianness формата : Big
Идентификатор кодека : A_DTS
Продолжительность : 1 ч. 38 м.
Вид битрейта : Постоянный
Битрейт : 768 Кбит/сек
Каналы : 1 канал
Расположение каналов : Front: C
Частота : 48,0 КГц
Частота кадров : 93,750 кадра/сек (512 spf)
Битовая глубина : 24 бит
Метод сжатия : С потерями
Размер потока : 540 Мбайт (4%)
Заголовок : original
Язык : French
Default : Нет
Forced : Нет

Текст #1
Идентификатор : 5
Формат : UTF-8
Идентификатор кодека : S_TEXT/UTF8
Идентификатор кодека/Информация : UTF-8 Plain Text
Продолжительность : 1 ч. 31 м.
Битрейт : 25 бит/сек
Count of elements : 327
Размер потока : 17,3 Кбайт (0%)
Заголовок : русские
Язык : Russian
Default : Нет
Forced : Нет

Текст #2
Идентификатор : 6
Формат : UTF-8
Идентификатор кодека : S_TEXT/UTF8
Идентификатор кодека/Информация : UTF-8 Plain Text
Продолжительность : 1 ч. 29 м.
Битрейт : 14 бит/сек
Count of elements : 347
Размер потока : 9,30 Кбайт (0%)
Заголовок : английские
Язык : English
Default : Нет
Forced : Нет

Меню
00:00:00.000 : en:00:00:00.000
00:14:51.557 : en:00:14:51.557
00:29:40.529 : en:00:29:40.529
00:32:22.440 : en:00:32:22.440
00:46:08.933 : en:00:46:08.933
00:51:34.300 : en:00:51:34.300
01:00:41.137 : en:01:00:41.137
01:04:23.693 : en:01:04:23.693
01:11:19.650 : en:01:11:19.650
01:16:09.148 : en:01:16:09.148
01:21:14.912 : en:01:21:14.912
01:33:03.286 : en:01:33:03.286
pb.wtf



Скачать Йойо через торрент http://s019.radikal.ru/i629/1612/8a/487cbb073769.jpg Скачать фильм Йойо через торрент бесплантно в хорошем качестве Описание: У человека есть всё: десятки служащих, дворец, огромный лес, сады, озеро, механические игрушки, музыканты, танцовщицы. У него ... 10 10 1
Info! Золотая раздача, скачанное не засчитывается.
Торрент: Зарегистрирован [2016-12-23 08:16] · скачан: 6 раз
Статус: √ проверено
Размер: 11.75 GB
Как cкачать? Как скачать Йойо через торрент | qTorrent

% Раздел Тема Автор DL S | L
Фильмы [HD 720p, 1080p] (Хороший звук DUB, MVO) [ 4.36 GB ] Йойо / Yoyo [1965 BDRip 720p by msltel] DVO VO msltel Скачать
1 | 0

28-11-2019 20:33  

Отключить всю рекламу на сайте

    Дорогой пользователь! Огромная просьба, поблагодарите релизера, оцените раздачу и оставьте свои комментарий, если Вы скачали Йойо через торрент бесплатно! Внесите свою лепту в развитие PiratBit!
    Комментировать посты могут только пользователи прошедшие не сложную регистрацию
    Показать сообщения:    

    Йойо через торрент
    Скачать бесплатно Йойо
    Йойо скачать торрент
    Йойо смотреть онлайн
    Cкачать фильм Йойо бесплатно
    Йойо скачать торрент в хорошем качестве
    Йойо смотреть онлайн бесплатно в хорошем качестве


    Вы не можете начинать темы
    Вы не можете отвечать на сообщения
    Вы не можете редактировать свои сообщения
    Вы не можете удалять свои сообщения
    Вы не можете голосовать в опросах
    Вы не можете прикреплять файлы к сообщениям
    Вы можете скачивать файлы