Ссылка на приватное зеркало нашего сайта всего за 1$. Внимание количество ограничено!!!

2 сезон

iTunes

1 сезон

1

iTunes

iTunes

iTunes

1 сезон

RePack

30

ИГРА 18+

pack

ВАЖНО

!!Акция!!

Alien_RageХит недели

RePack

MK11
pack

Забери бонус

RePack

jed

!!Акция!!

Alien_Rage

RePack

fifa19

RePack

Assassins Creed: Odyssey

RePack

NEED FOR SPEED™ PAYBACK

4 сезон

9 сезон

Бесстыжие 9 сезон

Все сериалы

все сериалы на PB.wtf

RePack

FAR CRY 5
  

Колодец забытых желаний / Серии: 1-4 из 4 (Петр Амелин) [2016, детектив, экранизация, SATRip-AVC] pb.wtf

Колодец забытых желаний через торрент pb.wtf

Размер: 1.95 GB | Добавлен: 3 года 10 мес. назад | Торрент скачан:188 раз
Скачать  

24-12-2016 15:02 Колодец забытых желаний Скачать торрент  

Колодец забытых желаний

Год выпуска: 2016
Производство: Россия, ООО "Свэлл Фильм"
Жанр: детектив,экранизация
Продолжительность: 00:43:00
Субтитры: нет



Режиссёр: Петр Амелин



В ролях:Павел Трубинер, Григорий Некрасов, Ирина Горячева, Георгий Штиль, Артур Ваха, Эрнст Романов, Софья Шуткина, Зоя Буряк, Ольга Онищенко, Виктор Терехов, Сергей Уманов, Ирина Сотикова, Анастасия Чистякова , Алексей Ревякин, Дмитрий Дячук, Павел Григорьев, Константин Чеховский, Александр Алексеев , Олег Попов , Кристина Убэлс, Дмитрий Жуков , Кирилл Иванов, Анастасия Торшина, Сергей Заморев, Алина Катран, Галина Мочалова, Любовь Константинова, Владимир Постников, Антон Пулит, Игорь Григорьев , Яков Петров, Константин Гаёхо, Андрей Аксёнов, Александр Ершов, Александр Самсон, Юрий Голубев, Николай Растворцев, Ирина Попова, Филипп Азаров
Описание: Из запасников музея украдена шкатулка. Все улики указывают на сына Ники Федора. Ника же уверена, что ее мальчик ничего не мог украсть... Но почему тогда он скрывается и не отвечает на ее звонки? Ситуация становится по-настоящему опасной, когда все узнают об убийстве антиквара - человека, который последним держал в руках украденную шкатулку. На помощь Нике приходит Олег - человек, близко знавший убитого антиквара. Он уверен, что истинной целью преступников была не шкатулка. Но что тогда?..


Релиз от:

Качество: SATRip-AVC
Формат: MKV
Видео кодек: H.264
Аудио кодек: AC3
Видео: MPEG4 Video (H264), 720x400, 25fps,1400 Kbps,bit/pixel 0.194
Аудио: AC3 48000Hz, stereo, 192kbps,2 ch


Общее
Уникальный идентификатор : 216102517868444840809893437710436236677 (0xA293D4BDDC1FCFD8ADE4E010C3817D85)
Полное имя : I:\Колодец забытых желаний\01 серия_Колодец забытых желаний_rip by_Aleksan55.mkv
Формат : Matroska
Версия формата : Version 2
Размер файла : 499 Мбайт
Продолжительность : 43 м.
Общий поток : 1594 Кбит/сек
Дата кодирования : UTC 2016-12-24 12:46:08
Программа кодирования : mkvmerge v7.8.0 ('River Man') 32bit built on Apr 3 2015 12:11:22
Библиотека кодирования : libebml v1.3.1 + libmatroska v1.4.2

Видео
Идентификатор : 1
Формат : AVC
Формат/Информация : Advanced Video Codec
Профиль формата : High@L3.1
Параметр CABAC формата : Да
Параметр ReFrames формата : 14 кадров
Идентификатор кодека : V_MPEG4/ISO/AVC
Продолжительность : 43 м.
Битрейт : 1400 Кбит/сек
Ширина : 720 пикселей
Высота : 400 пикселей
Соотношение сторон : 16:9
Режим частоты кадров : Постоянный
Частота кадров : 25,000 кадров/сек
Цветовое пространство : YUV
Субдискретизация насыщенности : 4:2:0
Битовая глубина : 8 бит
Тип развёртки : Прогрессивная
Бит/(Пиксели*Кадры) : 0.194
Размер потока : 429 Мбайт (86%)
Библиотека кодирования : x264 core 148 r2638 7599210
Настройки программы : cabac=1 / ref=14 / deblock=1:-1:-1 / analyse=0x3:0x133 / me=umh / subme=9 / psy=1 / psy_rd=1.00:0.15 / mixed_ref=0 / me_range=32 / chroma_me=1 / trellis=2 / 8x8dct=1 / cqm=0 / deadzone=21,11 / fast_pskip=0 / chroma_qp_offset=-3 / threads=3 / lookahead_threads=3 / sliced_threads=0 / nr=0 / decimate=0 / interlaced=0 / bluray_compat=0 / constrained_intra=0 / bframes=14 / b_pyramid=2 / b_adapt=1 / b_bias=0 / direct=3 / weightb=1 / open_gop=0 / weightp=2 / keyint=250 / keyint_min=25 / scenecut=40 / intra_refresh=0 / rc_lookahead=60 / rc=2pass / mbtree=1 / bitrate=1400 / ratetol=1.0 / qcomp=0.85 / qpmin=0 / qpmax=40 / qpstep=4 / cplxblur=20.0 / qblur=0.5 / ip_ratio=1.40 / aq=1:1.20
Default : Да
Forced : Нет
Цветовой диапазон : Limited
Основные цвета : BT.601 PAL
Характеристики трансфера : BT.470 System B, BT.470 System G
Коэффициенты матрицы : BT.601

Аудио
Идентификатор : 2
Формат : AC-3
Формат/Информация : Audio Coding 3
Расширение режима : CM (complete main)
Параметр Endianness формата : Big
Идентификатор кодека : A_AC3
Продолжительность : 43 м.
Вид битрейта : Постоянный
Битрейт : 192 Кбит/сек
Каналы : 2 канала
Расположение каналов : Front: L R
Частота : 48,0 КГц
Метод сжатия : С потерями
Размер потока : 60,1 Мбайт (12%)
Default : Да
Forced : Нет
Внимание! Раздача ведётся путём добавления новых серий; при каждом добавлении создаётся новый торрент.
Чтобы начать докачку новой серии, пользователям необходимо сделать следующее:
1. Остановить скачивание;
2. Удалить старый торрент у себя из клиента (старые серии удалять не надо);
3. Скачать новый торрент и запустить его у себя в клиенте вместо старого, при этом указать клиенту путь в старую папку куда и должно происходить скачивание новых серий. Ваш клиент при этом должен произвести хеширование (проверку) старой папки и будет докачивать только те серии, которых у вас ещё нет. Старые серии при этом не удаляются, а продолжают раздаваться! Eсли вы уже удалили старые серии, то предотвратить повторную закачку старых серий можно, отжав галочку в соответствующих местах при запуске нового торрента.


Рекламы нет.Добавлены 3-4 серия.pb.wtf



Скачать Колодец забытых желаний через торрент http://s018.radikal.ru/i507/1612/f7/e740ca4cb40d.jpg Скачать фильм Колодец забытых желаний через торрент бесплантно в хорошем качестве Описание: Из запасников музея украдена шкатулка. Все улики указывают на сына Ники Федора. Ника же уверена, что ее мальчик ничего не мог ... 9.9 10 8
Торрент: Зарегистрирован [2016-12-24 19:36] · скачан: 188 раз
Статус: √ проверено
Размер: 1.95 GB
Как cкачать? Как скачать Колодец забытых желаний через торрент | qTorrent

28-11-2019 20:33  

Отключить всю рекламу на сайте

    Дорогой пользователь! Огромная просьба, поблагодарите релизера, оцените раздачу и оставьте свои комментарий, если Вы скачали Колодец забытых желаний через торрент бесплатно! Внесите свою лепту в развитие PiratBit!
    Комментировать посты могут только пользователи прошедшие не сложную регистрацию
    Показать сообщения:    

    Колодец забытых желаний через торрент
    Скачать бесплатно Колодец забытых желаний
    Колодец забытых желаний скачать торрент
    Колодец забытых желаний смотреть онлайн
    Cкачать фильм Колодец забытых желаний бесплатно
    Колодец забытых желаний скачать торрент в хорошем качестве
    Колодец забытых желаний смотреть онлайн бесплатно в хорошем качестве


    Вы не можете начинать темы
    Вы не можете отвечать на сообщения
    Вы не можете редактировать свои сообщения
    Вы не можете удалять свои сообщения
    Вы не можете голосовать в опросах
    Вы не можете прикреплять файлы к сообщениям
    Вы можете скачивать файлы