Ссылка на приватное зеркало нашего сайта всего за 1$. Внимание количество ограничено!!!

2 сезон

iTunes

1 сезон

1

iTunes

iTunes

iTunes

1 сезон

RePack

30

ИГРА 18+

pack

ВАЖНО

!!Акция!!

Alien_RageХит недели

RePack

MK11
pack

Забери бонус

RePack

jed

!!Акция!!

Alien_Rage

RePack

fifa19

RePack

Assassins Creed: Odyssey

RePack

NEED FOR SPEED™ PAYBACK

4 сезон

9 сезон

Бесстыжие 9 сезон

Все сериалы

все сериалы на PB.wtf

RePack

FAR CRY 5
  

Последний шанс Харви / Last Chance Harvey (Джоэл Хопкинс) [2008, драма, мелодрама, BDRip 720p by msltel] MVO, DVO, AVO pb.wtf

Последний шанс Харви через торрент pb.wtf

Размер: 3.77 GB | Добавлен: 3 года 9 мес. назад | Торрент скачан:56 раз
Скачать  

25-12-2016 07:50 Последний шанс Харви Скачать торрент  

Название: Последний шанс Харви
Оригинальное название: Last Chance Harvey
Год выпуска: 2008
Страна: США
Жанр: драма, мелодрама
Продолжительность: 01:33:03
Перевод: Профессиональный многоголосый, профессиональный двухголосый, авторский

Режиссёр: Джоэл Хопкинс

В ролях: Дастин Хоффман, Эмма Томпсон, Айлин Аткинз, Кэти Бэйкер, Лайан Бэлабэн, Джеймс Бролин, Ричард Шифф, Бронах Галлахер, Джереми Шеффилд, Дэниэл Лапейн, Патрик Балади, Адам Джеймс, Майкл Ландес, Кейт Харпер, Джэми Сивз, Анджела Гриффин, Алекс Эйвери, Тим Эхерн, Шарлотта Лукас, Надя Кэмерон-Блэйки, Ридиан Джонс, Крис Уилсон, Эллиот Ливи, Масато Камо, Кас Грэхэм, Марк Кемпнер

Описание: Харви одинок и уже не молод. Он живёт в Нью-Йорке, зарабатывая на жизнь сочинением рекламных джинглов. Но однажды его размеренной и скучной жизни приходит конец. Прилетев в Лондон на свадьбу своей дочери, Харви неожиданно узнаёт, что на торжественной церемонии в качестве отца невесты выступит не он, а её отчим. Расстроенный и обиженный, Харви опаздывает на свой самолёт в Нью-Йорк. В баре аэропорта он встречает обаятельную женщину по имени Кейт, с которой его связывает очень многое, несмотря на то, что они даже не знакомы. Это последний шанс Харви… «Последний шанс Харви» — прекрасная и трогательная история о встрече родственных душ.



Качество: BDRip 720p
Формат: MKV
Видео: MPEG-4 AVC, 4258 Кбит/с, 1280x544, 23,976 кадра/с
Аудио 1: русский, 48 kHz, AC3, 6 ch, 448 kbps avg, [Профессиональный многоголосый, R5]
Аудио 2: русский, 48 kHz, AC3, 2 ch, 192 kbps avg, [Профессиональный двухголосый]
Аудио 3: русский, 48 kHz, AC3, 6 ch, 448 kbps avg, [Авторский, Юрий Сербин]
Аудио 4: английский, 48 kHz, AC3, 6 ch, 448 kbps avg, [Оригинал]
Субтитры 1: русские (Annalitik)
Субтитры 2: русские
Субтитры 3: английские (для слабослышащих)
Имеются неименованные главы/чаптеры.
Общее
Уникальный идентификатор : 238747505724287115885519501846559279417 (0xB39D18D7C23B4C399A5493EFDDE74939)
Полное имя : D:\Video\Последний шанс Харви.2008.BDRip.720p by msltel.mkv
Формат : Matroska
Версия формата : Version 4 / Version 2
Размер файла : 3,77 Гбайт
Продолжительность : 1 ч. 33 м.
Общий поток : 5797 Кбит/сек
Название фильма : Rip by msltel
Дата кодирования : UTC 2016-12-24 15:31:39
Программа кодирования : mkvmerge v8.2.0 ('World of Adventure') 64bit
Библиотека кодирования : libebml v1.3.1 + libmatroska v1.4.2

Видео
Идентификатор : 1
Формат : AVC
Формат/Информация : Advanced Video Codec
Профиль формата : High@L4.1
Параметр CABAC формата : Да
Параметр ReFrames формата : 9 кадров
Идентификатор кодека : V_MPEG4/ISO/AVC
Продолжительность : 1 ч. 33 м.
Битрейт : 4258 Кбит/сек
Ширина : 1280 пикселей
Высота : 544 пикселя
Соотношение сторон : 2,35:1
Режим частоты кадров : Постоянный
Частота кадров : 23,976 (24000/1001) кадра/сек
Цветовое пространство : YUV
Субдискретизация насыщенности : 4:2:0
Битовая глубина : 8 бит
Тип развёртки : Прогрессивная
Бит/(Пиксели*Кадры) : 0.255
Размер потока : 2,77 Гбайт (73%)
Библиотека кодирования : x264 core 146 r2538 121396c
Настройки программы : cabac=1 / ref=9 / deblock=1:-1:-1 / analyse=0x3:0x113 / me=umh / subme=9 / psy=1 / psy_rd=1.00:0.15 / mixed_ref=1 / me_range=32 / chroma_me=1 / trellis=1 / 8x8dct=1 / cqm=0 / deadzone=21,11 / fast_pskip=0 / chroma_qp_offset=-3 / threads=6 / lookahead_threads=1 / sliced_threads=0 / nr=0 / decimate=1 / interlaced=0 / bluray_compat=0 / constrained_intra=0 / bframes=8 / b_pyramid=2 / b_adapt=2 / b_bias=0 / direct=1 / weightb=0 / open_gop=0 / weightp=2 / keyint=230 / keyint_min=23 / scenecut=40 / intra_refresh=0 / rc_lookahead=40 / rc=crf / mbtree=0 / crf=18.0 / qcomp=0.60 / qpmin=0 / qpmax=69 / qpstep=4 / vbv_maxrate=50000 / vbv_bufsize=62500 / crf_max=0.0 / nal_hrd=none / filler=0 / ip_ratio=1.40 / pb_ratio=1.30 / aq=1:1.00
Язык : English
Default : Да
Forced : Нет

Аудио #1
Идентификатор : 2
Формат : AC-3
Формат/Информация : Audio Coding 3
Расширение режима : CM (complete main)
Параметр Endianness формата : Big
Идентификатор кодека : A_AC3
Продолжительность : 1 ч. 33 м.
Вид битрейта : Постоянный
Битрейт : 448 Кбит/сек
Каналы : 6 каналов
Расположение каналов : Front: L C R, Side: L R, LFE
Частота : 48,0 КГц
Частота кадров : 31,250 кадров/сек (1536 spf)
Метод сжатия : С потерями
Размер потока : 298 Мбайт (8%)
Заголовок : MVO (R5)
Язык : Russian
Default : Да
Forced : Нет

Аудио #2
Идентификатор : 3
Формат : AC-3
Формат/Информация : Audio Coding 3
Расширение режима : CM (complete main)
Параметр Endianness формата : Big
Идентификатор кодека : A_AC3
Продолжительность : 1 ч. 33 м.
Вид битрейта : Постоянный
Битрейт : 192 Кбит/сек
Каналы : 2 канала
Расположение каналов : Front: L R
Частота : 48,0 КГц
Частота кадров : 31,250 кадров/сек (1536 spf)
Метод сжатия : С потерями
Размер потока : 128 Мбайт (3%)
Заголовок : DVO
Язык : Russian
Default : Нет
Forced : Нет

Аудио #3
Идентификатор : 4
Формат : AC-3
Формат/Информация : Audio Coding 3
Расширение режима : CM (complete main)
Параметр Endianness формата : Big
Идентификатор кодека : A_AC3
Продолжительность : 1 ч. 33 м.
Вид битрейта : Постоянный
Битрейт : 448 Кбит/сек
Каналы : 6 каналов
Расположение каналов : Front: L C R, Side: L R, LFE
Частота : 48,0 КГц
Частота кадров : 31,250 кадров/сек (1536 spf)
Метод сжатия : С потерями
Размер потока : 298 Мбайт (8%)
Заголовок : AVO (Юрий Сербин)
Язык : Russian
Default : Нет
Forced : Нет

Аудио #4
Идентификатор : 5
Формат : AC-3
Формат/Информация : Audio Coding 3
Расширение режима : CM (complete main)
Параметр Endianness формата : Big
Идентификатор кодека : A_AC3
Продолжительность : 1 ч. 33 м.
Вид битрейта : Постоянный
Битрейт : 448 Кбит/сек
Каналы : 6 каналов
Расположение каналов : Front: L C R, Side: L R, LFE
Частота : 48,0 КГц
Частота кадров : 31,250 кадров/сек (1536 spf)
Метод сжатия : С потерями
Размер потока : 298 Мбайт (8%)
Заголовок : original
Язык : English
Default : Нет
Forced : Нет

Текст #1
Идентификатор : 6
Формат : UTF-8
Идентификатор кодека : S_TEXT/UTF8
Идентификатор кодека/Информация : UTF-8 Plain Text
Продолжительность : 1 ч. 29 м.
Битрейт : 90 бит/сек
Count of elements : 1159
Размер потока : 59,5 Кбайт (0%)
Заголовок : русские (Annalitik)
Язык : Russian
Default : Нет
Forced : Нет

Текст #2
Идентификатор : 7
Формат : UTF-8
Идентификатор кодека : S_TEXT/UTF8
Идентификатор кодека/Информация : UTF-8 Plain Text
Продолжительность : 1 ч. 29 м.
Битрейт : 67 бит/сек
Count of elements : 982
Размер потока : 44,1 Кбайт (0%)
Заголовок : русские
Язык : Russian
Default : Нет
Forced : Нет

Текст #3
Идентификатор : 8
Формат : UTF-8
Идентификатор кодека : S_TEXT/UTF8
Идентификатор кодека/Информация : UTF-8 Plain Text
Продолжительность : 1 ч. 30 м.
Битрейт : 75 бит/сек
Count of elements : 1326
Размер потока : 50,2 Кбайт (0%)
Заголовок : английские (для слабослышащих)
Язык : English
Default : Нет
Forced : Нет

Меню
00:00:00.000 : :Chapter 01
00:07:08.153 : :Chapter 02
00:14:42.648 : :Chapter 03
00:18:43.263 : :Chapter 04
00:23:02.647 : :Chapter 05
00:31:07.507 : :Chapter 06
00:34:13.652 : :Chapter 07
00:41:20.328 : :Chapter 08
00:47:26.819 : :Chapter 09
00:55:31.386 : :Chapter 10
01:01:24.948 : :Chapter 11
01:08:16.901 : :Chapter 12
01:13:05.856 : :Chapter 13
01:16:18.883 : :Chapter 14
01:21:11.008 : :Chapter 15
01:27:43.399 : :Chapter 16
pb.wtf



Скачать Последний шанс Харви через торрент http://s41.radikal.ru/i094/1612/74/763d02e8776c.jpg Скачать фильм Последний шанс Харви через торрент бесплантно в хорошем качестве Описание: Харви одинок и уже не молод. Он живёт в Нью-Йорке, зарабатывая на жизнь сочинением рекламных джинглов. Но однажды его размеренной ... 10 10 1
Info! Золотая раздача, скачанное не засчитывается.
Торрент: Зарегистрирован [2016-12-25 07:50] · скачан: 56 раз
Статус: √ проверено
Размер: 3.77 GB
Как cкачать? Как скачать Последний шанс Харви через торрент | qTorrent

% Раздел Тема Автор DL S | L
Фильмы [HD 720p, 1080p] (Хороший звук DUB, MVO) [ 10.12 GB ] Последний шанс Харви / Last Chance Harvey [2008 BDRip 1080p by msltel] MVO DVO AVO msltel Скачать
1 | 0
Фильмы [HD 720p, 1080p] (Хороший звук DUB, MVO) [ 9.77 GB ] Последний шанс Харви / Last Chance Harvey [2008 BDRip 1080p] |MVO DVO AVO | кэп Скачать
1 | 0

28-11-2019 20:33  

Отключить всю рекламу на сайте

    Дорогой пользователь! Огромная просьба, поблагодарите релизера, оцените раздачу и оставьте свои комментарий, если Вы скачали Последний шанс Харви через торрент бесплатно! Внесите свою лепту в развитие PiratBit!
    Комментировать посты могут только пользователи прошедшие не сложную регистрацию
    Показать сообщения:    

    Последний шанс Харви через торрент
    Скачать бесплатно Последний шанс Харви
    Последний шанс Харви скачать торрент
    Последний шанс Харви смотреть онлайн
    Cкачать фильм Последний шанс Харви бесплатно
    Последний шанс Харви скачать торрент в хорошем качестве
    Последний шанс Харви смотреть онлайн бесплатно в хорошем качестве


    Вы не можете начинать темы
    Вы не можете отвечать на сообщения
    Вы не можете редактировать свои сообщения
    Вы не можете удалять свои сообщения
    Вы не можете голосовать в опросах
    Вы не можете прикреплять файлы к сообщениям
    Вы можете скачивать файлы