Ссылка на приватное зеркало нашего сайта всего за 1$. Внимание количество ограничено!!!

2 сезон

iTunes

1 сезон

1

iTunes

iTunes

iTunes

1 сезон

RePack

30

ИГРА 18+

pack

ВАЖНО

!!Акция!!

Alien_RageХит недели

RePack

MK11
pack

Забери бонус

RePack

jed

!!Акция!!

Alien_Rage

RePack

fifa19

RePack

Assassins Creed: Odyssey

RePack

NEED FOR SPEED™ PAYBACK

4 сезон

9 сезон

Бесстыжие 9 сезон

Все сериалы

все сериалы на PB.wtf

RePack

FAR CRY 5
  

Морган / Morgan (Люк Скотт ) [2016, ужасы, фантастика, триллер, BDRip 720p от potroks] Dub [iTunes] pb.wtf

Морган через торрент pb.wtf

Размер: 3.69 GB | Добавлен: 3 года 9 мес. назад | Торрент скачан:736 раз
Скачать  

25-12-2016 07:56 Морган Скачать торрент  

Морган / Morgan

Год выпуска: 2016
Страна: США / Невафильм, Scott Free Productions.
Жанр: ужасы, фантастика, триллер, детектив
Продолжительность: 01:31:54
Перевод: Дубляж [iTunes]
Субтитры: русские (полные + форс.), английские (Full + SDH + SDH-Colored)
Навигация по главам: есть
Режиссер: Люк Скотт
В ролях:

Кейт Мара (Lee Weathers), Аня Тейлор-Джой (Morgan), Роуз Лесли (Dr. Amy Menser), Майкл Йар (Ted Brenner), Тоби Джонс (Dr. Simon Ziegler), Крис Салливан (Dr. Darren Finch), Бойд Холбрук (Skip Vronsky), Винетт Робинсон (Dr. Brenda Finch), Мишель Йео (Dr. Lui Cheng), Брайан Кокс (Jim Bryce), Дженнифер Джейсон Ли (Dr. Kathy Grieff), Пол Джаматти (Dr. Alan Shapiro)
Описание: Сотрудница по устранению аварий отправляется в отдаленный секретный филиал, где должна расследовать и оценить потери от происшествия. На месте она узнает, что случившееся было вызвано, казалось бы, невинным «человеком», чьё существование само по себе является тайной.

Качество: BDRip 720p
Формат: MKV
Видео: AVC, 1280x536 (2.40:1), 4921 kbps, 23,976 fps, 0,299 bpp
Аудио №1: AC3 / 5.1 / 48 kHz / 384 kbps / 16 bit | RUS
Аудио №2: AC3 / 5.1 / 48 kHz / 448 kbps / 16 bit | ENG
General
Unique ID : 236536014347046480224692923751802156393 (0xB1F32DE652A9A662A01C5A6FEC193569)
Complete name : D:\Morgan.2016.DUAL.BDRip.720p.-HELLYWOOD.mkv
Format : Matroska
Format version : Version 4 / Version 2
File size : 3.69 GiB
Duration : 1 h 31 min
Overall bit rate : 5 748 kb/s
Movie name : Morgan (2016)
Encoded date : UTC 2016-12-20 09:01:22
Writing application : mkvmerge v5.9.0 ('On The Loose') built on Dec 15 2012 16:39:58
Writing library : libebml v1.3.0 + libmatroska v1.4.0

Video
ID : 1
Format : AVC
Format/Info : Advanced Video Codec
Format profile : High@L4.1
Format settings, CABAC : Yes
Format settings, ReFrames : 9 frames
Codec ID : V_MPEG4/ISO/AVC
Duration : 1 h 31 min
Bit rate : 4 921 kb/s
Width : 1 280 pixels
Height : 536 pixels
Display aspect ratio : 2.40:1
Frame rate mode : Constant
Frame rate : 23.976 FPS
Color space : YUV
Chroma subsampling : 4:2:0
Bit depth : 8 bits
Scan type : Progressive
Bits/(Pixel*Frame) : 0.299
Stream size : 3.08 GiB (84%)
Title : potroks
Writing library : x264 core 146 r2538 121396c
Encoding settings : cabac=1 / ref=9 / deblock=1:-2:-2 / analyse=0x3:0x113 / me=umh / subme=11 / psy=1 / psy_rd=1.00:0.10 / mixed_ref=1 / me_range=48 / chroma_me=1 / trellis=2 / 8x8dct=1 / cqm=0 / deadzone=21,11 / fast_pskip=0 / chroma_qp_offset=-3 / threads=9 / lookahead_threads=2 / sliced_threads=0 / nr=0 / decimate=0 / interlaced=0 / bluray_compat=0 / constrained_intra=0 / bframes=12 / b_pyramid=2 / b_adapt=2 / b_bias=0 / direct=3 / weightb=1 / open_gop=0 / weightp=2 / keyint=240 / keyint_min=23 / scenecut=40 / intra_refresh=0 / rc_lookahead=60 / rc=2pass / mbtree=0 / bitrate=4921 / ratetol=1.0 / qcomp=0.70 / qpmin=0 / qpmax=69 / qpstep=4 / cplxblur=20.0 / qblur=0.5 / vbv_maxrate=14000 / vbv_bufsize=14000 / nal_hrd=none / filler=0 / ip_ratio=1.40 / pb_ratio=1.30 / aq=1:0.80
Language : English
Default : Yes
Forced : No

Audio #1
ID : 2
Format : AC-3
Format/Info : Audio Coding 3
Mode extension : CM (complete main)
Format settings, Endianness : Big
Codec ID : A_AC3
Duration : 1 h 31 min
Bit rate mode : Constant
Bit rate : 384 kb/s
Channel(s) : 6 channels
Channel positions : Front: L C R, Side: L R, LFE
Sampling rate : 48.0 kHz
Frame rate : 31.250 FPS (1536 spf)
Compression mode : Lossy
Stream size : 252 MiB (7%)
Title : Dub | DD 5.1 @ 384 kbps - iTunes
Language : Russian
Default : Yes
Forced : No

Audio #2
ID : 3
Format : AC-3
Format/Info : Audio Coding 3
Mode extension : CM (complete main)
Format settings, Endianness : Big
Codec ID : A_AC3
Duration : 1 h 31 min
Bit rate mode : Constant
Bit rate : 448 kb/s
Channel(s) : 6 channels
Channel positions : Front: L C R, Side: L R, LFE
Sampling rate : 48.0 kHz
Frame rate : 31.250 FPS (1536 spf)
Compression mode : Lossy
Stream size : 295 MiB (8%)
Title : Original | DD 5.1 @ 448 kbps
Language : English
Default : No
Forced : No

Text #1
ID : 4
Format : UTF-8
Codec ID : S_TEXT/UTF8
Codec ID/Info : UTF-8 Plain Text
Title : Forced
Language : Russian
Default : Yes
Forced : No

Text #2
ID : 5
Format : UTF-8
Codec ID : S_TEXT/UTF8
Codec ID/Info : UTF-8 Plain Text
Title : iTunes
Language : Russian
Default : No
Forced : No

Text #3
ID : 6
Format : UTF-8
Codec ID : S_TEXT/UTF8
Codec ID/Info : UTF-8 Plain Text
Title : Full
Language : English
Default : No
Forced : No

Text #4
ID : 7
Format : UTF-8
Codec ID : S_TEXT/UTF8
Codec ID/Info : UTF-8 Plain Text
Title : SDH
Language : English
Default : No
Forced : No

Text #5
ID : 8
Format : UTF-8
Codec ID : S_TEXT/UTF8
Codec ID/Info : UTF-8 Plain Text
Title : SDH-Colored
Language : English
Default : No
Forced : No

Menu
00:00:00.000 : en:(01)00:00:00:000
00:03:43.097 : en:(02)00:03:43:097
00:07:22.399 : en:(03)00:07:22:399
00:11:41.783 : en:(04)00:11:41:783
00:16:04.337 : en:(05)00:16:04:337
00:20:30.269 : en:(06)00:20:30:269
00:25:36.326 : en:(07)00:25:36:326
00:28:45.515 : en:(08)00:28:45:515
00:34:20.266 : en:(09)00:34:20:266
00:37:17.860 : en:(10)00:37:17:860
00:40:46.110 : en:(11)00:40:46:110
00:43:47.123 : en:(12)00:43:47:123
00:48:14.224 : en:(13)00:48:14:224
00:51:28.751 : en:(14)00:51:28:751
00:54:45.990 : en:(15)00:54:45:990
00:59:51.045 : en:(16)00:59:51:045
01:03:44.402 : en:(17)01:03:44:402
01:08:01.619 : en:(18)01:08:01:619
01:11:43.756 : en:(19)01:11:43:756
01:13:46.421 : en:(20)01:13:46:421
01:17:03.702 : en:(21)01:17:03:702
01:20:01.671 : en:(22)01:20:01:671
01:22:32.529 : en:(23)01:22:32:529
01:25:10.939 : en:(24)01:25:10:939
01:31:52.421 : en:(25)01:31:52:421
pb.wtf



Скачать Морган через торрент http://i87.fastpic.ru/big/2016/1225/e9/5d2f9f87fc863dcd2e07af67f6add4e9.png Скачать фильм Морган через торрент бесплантно в хорошем качестве Описание: Сотрудница по устранению аварий отправляется в отдаленный секретный филиал, где должна расследовать и оценить потери от ... 9.8 10 17
Info! Золотая раздача, скачанное не засчитывается.
Торрент: Зарегистрирован [2016-12-25 07:56] · скачан: 736 раз
Статус: √ проверено
Размер: 3.69 GB
Как cкачать? Как скачать Морган через торрент | qTorrent

% Раздел Тема Автор DL S | L
Зарубежные сериалы [ 5.33 GB ] Хорошее место / В лучшем мире / The Good Place / Сезон 1 / Серии 1-13 из 13 [2016 WEB-DLRip-AVC] MVO [BaibaKo] GEKADOL Скачать
1 | 1
National Geographic [ 6.97 GB ] National Geographic: История о нас с Морганом Фрименом / The Story of Us with Morgan Freem / Серии: 1-6 из 6 [2017 документальный DVB] VO bober100 Скачать
1 | 0
Фильмы (Blu-ray, BD-Remux, HDDVD) [ 38.31 GB ] Морган / Morgan [2016 Blu-ray EUR 1080p] DUB sheker187 Скачать
1 | 0
Ultra HD (UHD: 2K, 4K, 8K) — видео сверхвысокой чёткости [ 26.18 GB ] Морган / Morgan [2016 UHD BDRemux 2160p] DUB [] bober100 Скачать
1 | 0
Зарубежные сериалы [ 26.51 GB ] Секретные материалы / The X-Files / Сезон: 11 / Серии 1-10 из 10 [2018 WEBRip 1080p WEB-DL 1080p] MVO [BaibaKo] GEKADOL Скачать
1 | 1
Фильмы [HD 720p, 1080p] (Хороший звук DUB, MVO) [ 7.35 GB ] Морган / Morgan [2016 BDRip 1080p] DUB [] bober100 Скачать
1 | 0
Фильмы (Blu-ray, BD-Remux, HDDVD) [ 21.19 GB ] Морган / Morgan [2016 BD Remux 1080p] DUB [] bober100 Скачать
1 | 0

28-11-2019 20:33  

Отключить всю рекламу на сайте

25-12-2016 12:56 Морган Скачать торрент  

Фильм хороший,ужасами не пахнет,но в напряжении немного держит,на разок можно,ну на два.pb.wtf



02-01-2017 15:30 Морган Скачать торрент  

добротный такой триллер с фантастическим уклоном-к просмотру однозначноpb.wtf



03-01-2017 20:08 Морган Скачать торрент  

Ток сейчас посмотрел. СОгласен выше. ФИльмец пойдет) ПОсмотреть можно. Картинка классная. Сюжет неплохой.pb.wtf



14-01-2017 21:56 Морган Скачать торрент  

а раздачи дайте.. пож.. спс..pb.wtf



27-10-2019 21:59 Морган Скачать торрент  

сюжет нормо но!! не закручен нудня интересн что с ней в конце и то концовка банальна баба контроль агент нормо. 3-10 балоов!! сосни много японский базарит похвастать языком я поржал 1 минутту спасибо!pb.wtf



    Дорогой пользователь! Огромная просьба, поблагодарите релизера, оцените раздачу и оставьте свои комментарий, если Вы скачали Морган через торрент бесплатно! Внесите свою лепту в развитие PiratBit!
    Комментировать посты могут только пользователи прошедшие не сложную регистрацию
    Показать сообщения:    

    Морган через торрент
    Скачать бесплатно Морган
    Морган скачать торрент
    Морган смотреть онлайн
    Cкачать фильм Морган бесплатно
    Морган скачать торрент в хорошем качестве
    Морган смотреть онлайн бесплатно в хорошем качестве


    Вы не можете начинать темы
    Вы не можете отвечать на сообщения
    Вы не можете редактировать свои сообщения
    Вы не можете удалять свои сообщения
    Вы не можете голосовать в опросах
    Вы не можете прикреплять файлы к сообщениям
    Вы можете скачивать файлы