Достать ножи: Стеклянная луковица

MVO

Добыча

Дубляж

Уэнсдэй

1 сезон

Тор

Дубляж

13 клиническая

1 сезон

Жестокая ночь

MVO

Одни из нас

1 сезон

Deluxe

pack

Рекомендуем

30

Пиратка

ВАЖНО

ВАЖНО

Ghostwire

Пиратка

jed

RePack

nioh2

RePack

RDR2

RePack

NEED FOR SPEED™ PAYBACK

RePack

скачать торрент

Кинопоиск HD

Острые козырьки 6 сезон

6 сезон

FAR CRY 6

RePack

скачать торрент

Лицензия

скачать торрент

MVO

1

1 сезон

скачать торрент

1 сезон

скачать торрент

Лицензия

  

Необыкновенное лето (Владимир Басов) [1956, СССР, драма, VHSRip от AVP Studio]

Необыкновенное лето через торрент pb.wtf

Размер: 1.46 GB | Добавлен: 6 лет 1 мес. назад | Торрент скачан:10 раз
Смотреть онлайн | Скачать | Поддержите нас   

25-12-2016 09:27 Необыкновенное лето Скачать торрент  

Необыкновенное лето
Страна: СССР
Производство: Мосфильм

Жанр: драма
Год выпуска: 1956
Продолжительность: 01:36:53

Перевод: Не требуется
Cубтитры: нет
Оригинальная аудиодорожка: русский

Режиссер: Владимир Басов

В ролях:
Виктор Коршунов, Роза Макагонова, Владимир Емельянов, Юрий Яковлев, Михаил Названов, Владимир Соловьёв, Борис Новиков, Владимир Дружников, Ольга Жизнева, Афанасий Кочетков, Глеб Стриженов, Георгий Георгиу, Татьяна Конюхова, Валентина Ушакова, Александр Роговин, Иван Воронов, Виктор Третьяков (V), Валя Ерофеев, Виктор Коваль, Леша Мартынов...
Полный список актёров

Описание:
Драма по одноименному роману Константина Федина.
Второй фильм кинодилогии, начатой фильмом «Первые радости», рассказывает о событиях 1919 года в одном из приволжских городов России.
1919 год. Саратов. Новые перипетии судьбы бывшего студента Кирилла Извекова, ныне комиссара Красной Армии, от разгрома врангелевской дивизии и взятия Саратова до всепоглощающей любви к актрисе местного театра Аночке.

Источник: VHS
Качество видео: VHSRip
Формат видео: AVI

Видео: 688x512 (4:3), 25 fps, XviD ~ 1955 kbps avg, 0.222 bit/pixel
Аудио: 48 kHz, Dolby Digital AC3 2.0, 192 kbps

Раздача от:
Общее
Полное имя : Neobyknovennoe.leto.1956.VHSRip_[New-team]_by_AVP_Studio.avi
Формат : AVI
Формат/Информация : Audio Video Interleave
Размер файла : 1,46 Гбайт
Продолжительность : 1 ч. 36 м.
Общий поток : 2157 Кбит/сек
Программа кодирования : VirtualDubMod 1.5.10.3 | www.virtualdub-fr.org || (build 2550/release)
Библиотека кодирования : VirtualDubMod build 2550/release

Видео
Идентификатор : 0
Формат : MPEG-4 Visual
Профиль формата : Advanced [email protected]
Параметр BVOP формата : 1
Параметр QPel формата : Нет
Параметр GMC формата : Без точки перехода
Параметр матрицы формата : Выборочная
Идентификатор кодека : XVID
Идентификатор кодека/Подсказка : XviD
Продолжительность : 1 ч. 36 м.
Битрейт : 1955 Кбит/сек
Ширина : 688 пикселей
Высота : 512 пикселей
Соотношение сторон : 4:3
Частота кадров : 25,000 кадров/сек
Цветовое пространство : YUV
Субдискретизация насыщенности : 4:2:0
Битовая глубина : 8 бит
Тип развёртки : Прогрессивная
Метод сжатия : С потерями
Бит/(Пиксели*Кадры) : 0.222
Размер потока : 1,32 Гбайт (91%)
Библиотека кодирования : XviD 73

Аудио
Идентификатор : 1
Формат : AC-3
Формат/Информация : Audio Coding 3
Расширение режима : CM (complete main)
Параметр Endianness формата : Big
Идентификатор кодека : 2000
Продолжительность : 1 ч. 36 м.
Вид битрейта : Постоянный
Битрейт : 192 Кбит/сек
Каналы : 2 канала
Расположение каналов : Front: L R
Частота : 48,0 КГц
Частота кадров : 31,250 кадров/сек (1536 spf)
Битовая глубина : 16 бит
Метод сжатия : С потерями
Размер потока : 133 Мбайт (9%)
Выравнивание : Разделение по промежуткам
Продолжительность промежутка : 40 мс. (1,00 видеокадр)
Время предзагрузки промежутка : 500 мс



Скачать Необыкновенное лето через торрент http://s019.radikal.ru/i600/1612/88/a45b3ab6b804.png Скачать, смотреть онлайн Необыкновенное лето бесплантно в хорошем качестве Описание:Драма по одноименному роману Константина Федина.Второй фильм кинодилогии, начатой фильмом «Первые радости», рассказывает о ... 5 10 1
Торрент: Зарегистрирован [2016-12-25 09:27] · скачан: 10 раз
Статус: √ проверено
Размер: 1.46 GB
Как cкачать? Как скачать Необыкновенное лето через торрент | UTorrent

% Раздел Тема Автор DL S | L
Кино СССР [ 1.46 GB ] Необыкновенное лето | | Необыкновенное лето (Владимир Басов AVP Studio Скачать
1 | 0
Кино СССР [ 745 MB ] Необыкновенное лето | | Необыкновенное лето (Владимир Басов AVP Studio Скачать
1 | 0

28-11-2019 20:33  


Отключить вcю реклaмy на сайте, в т.ч. и в плеере онлайн просмотра!

    Дорогой пользователь! Огромная просьба, поблагодарите релизера, оцените раздачу и оставьте свои комментарий, если Вы скачали Необыкновенное лето через торрент бесплатно!!
    Комментировать посты могут только пользователи прошедшие не сложную регистрацию
    Показать сообщения:    


    Необыкновенное лето через торрент
    Скачать бесплатно Необыкновенное лето
    Необыкновенное лето скачать торрент
    Необыкновенное лето смотреть онлайн
    Cкачать фильм Необыкновенное лето бесплатно
    Необыкновенное лето скачать торрент в хорошем качестве
    Необыкновенное лето смотреть онлайн бесплатно в хорошем качестве
    Вы не можете начинать темы
    Вы не можете отвечать на сообщения
    Вы не можете редактировать свои сообщения
    Вы не можете удалять свои сообщения
    Вы не можете голосовать в опросах
    Вы не можете прикреплять файлы к сообщениям
    Вы можете скачивать файлы
    Необыкновенное лето [1956, СССР, драма, VHSRip от AVP Studio] смотреть онлайн, скачать торрент picoco.icu