Ссылка на приватное зеркало нашего сайта всего за 1$. Внимание количество ограничено!!!

2 сезон

iTunes

1 сезон

1

2 сезон

2 сезон

iTunes

1 сезон

RePack

30

Новинка

ВАЖНО

ИГРА 18+

pack

RePack

MK11
pack

Забери бонус

RePack

jed

!!Акция!!

Alien_Rage

RePack

fifa19

RePack

Assassins Creed: Odyssey

RePack

NEED FOR SPEED™ PAYBACK

4 сезон

9 сезон

Бесстыжие 9 сезон

Все сериалы

все сериалы на PB.wtf

RePack

FAR CRY 5
  

Потерянный север / Perdiendo el norte (Начо Г. Велилья) [2015 г., комедия, BDRip 720p] VO pb.wtf

Потерянный север через торрент pb.wtf

Размер: 3.72 GB | Добавлен: 3 года 11 мес. назад | Торрент скачан:53 раза
Скачать  

25-12-2016 15:43 Потерянный север Скачать торрент  

Потерянный север / Perdiendo el norte
Год выпуска: 2015
Страна: Испания
Жанр: комедия
Продолжительность: 01:42:07
Перевод: Любительский одноголосый Pashaup
Субтитры: Русские, английские, испанские

Режиссер: Начо Г. Велилья

rating

В ролях: Йон Гонсалес, Хулиан Лопес, Бланка Суарес, Малена Альтерио, Урсула Корберо, Юн Башир, Хавьер Камара, Кармен Мачи, Хосе Сакристан, Аранча Арангурен

Описание: Уго и Браульо — двое молодых испанцев с высшим образованием. Отчаявшись найти работу у себя на родине, они отправляются в Германию, потому что именно там, как сказано в одной рекламной телепередаче, «нужны квалифицированные специалисты». Однако и в Берлине всё идет не так гладко. Энтузиазм друзей уменьшается, а обещанная «немецкая мечта» похожа на страшный сон. Ведь если ты не нужен здесь, это совсем не значит, что тебя ждут где-то там…

Качество: BDRip 720p [CREATiVE]
Формат: MKV
Видео кодек: x264
Аудио кодек: AC3
Видео: MPEG-4 AVC, 4373 Кбит/с, 1280х536, 25 кадр/с
Аудио#1: AC3, 2 ch, 192 Кбит/с, 48 kHz | Русский
Аудио#2: AC3, 6 ch, 640 Кбит/с, 48 kHz | Испанский
Релиз от: Koenig Рекламы нет
Общее
Уникальный идентификатор : 212238348619177747572610898034984837407 (0x9FAB9E7D07867C10AA882CDD9A91611F)
Полное имя : Perdiendo.El.Norte.2015.BDRip.720p.mkv
Формат : Matroska
Версия формата : Version 4 / Version 2
Размер файла : 3,72 Гбайт
Продолжительность : 1 ч. 42 м.
Общий поток : 5208 Кбит/сек
Название фильма : Perdiendo el norte 2015 720p
Дата кодирования : UTC 2016-12-25 10:14:59
Программа кодирования : mkvmerge v9.2.0 ('Photograph') 32bit
Библиотека кодирования : libebml v1.3.3 + libmatroska v1.4.4
Обложка : Yes
Attachments : cover.jpg

Видео
Идентификатор : 1
Формат : AVC
Формат/Информация : Advanced Video Codec
Профиль формата : High@L4.1
Параметр CABAC формата : Да
Параметр ReFrames формата : 12 кадров
Идентификатор кодека : V_MPEG4/ISO/AVC
Продолжительность : 1 ч. 42 м.
Битрейт : 4373 Кбит/сек
Ширина : 1280 пикселей
Высота : 536 пикселей
Соотношение сторон : 2,40:1
Режим частоты кадров : Постоянный
Частота кадров : 25,000 кадров/сек
Цветовое пространство : YUV
Субдискретизация насыщенности : 4:2:0
Битовая глубина : 8 бит
Тип развёртки : Прогрессивная
Бит/(Пиксели*Кадры) : 0.255
Размер потока : 3,12 Гбайт (84%)
Заголовок : Perdiendo el norte - CREATiVE
Библиотека кодирования : x264 core 148 r2744 b97ae06
Настройки программы : cabac=1 / ref=12 / deblock=1:-3:-3 / analyse=0x3:0x133 / me=umh / subme=10 / psy=1 / psy_rd=1.00:0.00 / mixed_ref=1 / me_range=32 / chroma_me=1 / trellis=2 / 8x8dct=1 / cqm=0 / deadzone=21,11 / fast_pskip=0 / chroma_qp_offset=-2 / threads=6 / lookahead_threads=1 / sliced_threads=0 / nr=0 / decimate=0 / interlaced=0 / bluray_compat=0 / constrained_intra=0 / bframes=7 / b_pyramid=2 / b_adapt=2 / b_bias=0 / direct=3 / weightb=1 / open_gop=0 / weightp=2 / keyint=250 / keyint_min=25 / scenecut=40 / intra_refresh=0 / rc_lookahead=60 / rc=crf / mbtree=0 / crf=16.2 / qcomp=0.65 / qpmin=0 / qpmax=51 / qpstep=4 / vbv_maxrate=62500 / vbv_bufsize=78125 / crf_max=0.0 / nal_hrd=none / filler=0 / ip_ratio=1.30 / pb_ratio=1.20 / aq=3:0.75
Язык : Spanish
Default : Да
Forced : Нет

Аудио #1
Идентификатор : 2
Формат : AC-3
Формат/Информация : Audio Coding 3
Расширение режима : CM (complete main)
Параметр Endianness формата : Big
Идентификатор кодека : A_AC3
Продолжительность : 1 ч. 42 м.
Вид битрейта : Постоянный
Битрейт : 192 Кбит/сек
Каналы : 2 канала
Расположение каналов : Front: L R
Частота : 48,0 КГц
Частота кадров : 31,250 кадров/сек (1536 spf)
Битовая глубина : 16 бит
Метод сжатия : С потерями
Размер потока : 140 Мбайт (4%)
Заголовок : VO - PashaUp
Язык : Russian
Default : Да
Forced : Нет

Аудио #2
Идентификатор : 3
Формат : AC-3
Формат/Информация : Audio Coding 3
Расширение режима : CM (complete main)
Параметр Endianness формата : Big
Идентификатор кодека : A_AC3
Продолжительность : 1 ч. 42 м.
Вид битрейта : Постоянный
Битрейт : 640 Кбит/сек
Каналы : 6 каналов
Расположение каналов : Front: L C R, Side: L R, LFE
Частота : 48,0 КГц
Частота кадров : 31,250 кадров/сек (1536 spf)
Битовая глубина : 16 бит
Метод сжатия : С потерями
Размер потока : 467 Мбайт (12%)
Язык : Spanish
Default : Нет
Forced : Нет

Текст #1
Идентификатор : 4
Формат : UTF-8
Идентификатор кодека : S_TEXT/UTF8
Идентификатор кодека/Информация : UTF-8 Plain Text
Продолжительность : 1 ч. 37 м.
Битрейт : 131 бит/сек
Count of elements : 1773
Размер потока : 94,3 Кбайт (0%)
Язык : Russian
Default : Да
Forced : Нет

Текст #2
Идентификатор : 5
Формат : UTF-8
Идентификатор кодека : S_TEXT/UTF8
Идентификатор кодека/Информация : UTF-8 Plain Text
Продолжительность : 1 ч. 41 м.
Битрейт : 68 бит/сек
Count of elements : 1776
Размер потока : 50,8 Кбайт (0%)
Язык : English
Default : Нет
Forced : Нет

Текст #3
Идентификатор : 6
Формат : UTF-8
Идентификатор кодека : S_TEXT/UTF8
Идентификатор кодека/Информация : UTF-8 Plain Text
Продолжительность : 1 ч. 38 м.
Битрейт : 95 бит/сек
Count of elements : 2188
Размер потока : 68,6 Кбайт (0%)
Заголовок : SDH
Язык : Spanish
Default : Нет
Forced : Нет

Меню
00:00:00.000 : en:00:00:00.000
00:07:40.560 : en:00:07:40.560
00:16:50.120 : en:00:16:50.120
00:25:16.840 : en:00:25:16.840
00:35:25.040 : en:00:35:25.040
00:45:00.640 : en:00:45:00.640
00:52:29.600 : en:00:52:29.600
00:58:45.720 : en:00:58:45.720
01:04:08.760 : en:01:04:08.760
01:14:45.360 : en:01:14:45.360
01:19:59.840 : en:01:19:59.840
01:30:45.840 : en:01:30:45.840

pb.wtf
Kschultz писал(а):

http://sendfile.su/1293753 сэмпл с AVI файла для оценки звука



Скачать Потерянный север через торрент http://pic1.kartinco.top/images/11/qlpbp.jpg Скачать фильм Потерянный север через торрент бесплантно в хорошем качестве Описание: Уго и Браульо — двое молодых испанцев с высшим образованием. Отчаявшись найти работу у себя на родине, они отправляются в ... 5 10 1
Торрент: Зарегистрирован [2016-12-25 15:43] · скачан: 53 раз
Статус: T временная
Размер: 3.72 GB
Как cкачать? Как скачать Потерянный север через торрент | qTorrent

% Раздел Тема Автор DL S | L
T Фильмы 2015 (Звук TS, Cam, VO, DVO) [ 2.05 GB ] Потерянный север / Perdiendo el norte [2015 Испания HDRip] VO Ворон Скачать
1 | 0


Последний раз редактировалось: koenig (2016-12-26 07:55), всего редактировалось 1 раз

28-11-2019 20:33  

Отключить всю рекламу на сайте

    Дорогой пользователь! Огромная просьба, поблагодарите релизера, оцените раздачу и оставьте свои комментарий, если Вы скачали Потерянный север через торрент бесплатно! Внесите свою лепту в развитие PiratBit!
    Комментировать посты могут только пользователи прошедшие не сложную регистрацию
    Показать сообщения:    

    Потерянный север через торрент
    Скачать бесплатно Потерянный север
    Потерянный север скачать торрент
    Потерянный север смотреть онлайн
    Cкачать фильм Потерянный север бесплатно
    Потерянный север скачать торрент в хорошем качестве
    Потерянный север смотреть онлайн бесплатно в хорошем качестве


    Вы не можете начинать темы
    Вы не можете отвечать на сообщения
    Вы не можете редактировать свои сообщения
    Вы не можете удалять свои сообщения
    Вы не можете голосовать в опросах
    Вы не можете прикреплять файлы к сообщениям
    Вы можете скачивать файлы