Ссылка на приватное зеркало нашего сайта всего за 1$. Внимание количество ограничено!!!

2 сезон

iTunes

1 сезон

1

iTunes

iTunes

iTunes

1 сезон

RePack

30

ИГРА 18+

pack

ВАЖНО

!!Акция!!

Alien_RageХит недели

RePack

MK11
pack

Забери бонус

RePack

jed

!!Акция!!

Alien_Rage

RePack

fifa19

RePack

Assassins Creed: Odyssey

RePack

NEED FOR SPEED™ PAYBACK

4 сезон

9 сезон

Бесстыжие 9 сезон

Все сериалы

все сериалы на PB.wtf

RePack

FAR CRY 5
  

Чужие и близкие / Серии: 1-4 из 4 (Кира Ангелина) [2016,мелодрама, SATRip-AVC] pb.wtf

Чужие и близкие через торрент pb.wtf

Размер: 2.03 GB | Добавлен: 3 года 9 мес. назад | Торрент скачан:68 раз
Скачать  

25-12-2016 16:04 Чужие и близкие Скачать торрент  

Чужие и близкие

Год выпуска: 2016
Производство: Россия, "Akvilon media"
Жанр: мелодрама
Продолжительность: 00:44:00
Субтитры: нет



Режиссёр: Кира Ангелина



В ролях:Екатерина Волкова, Даниил Спиваковский, Ксения Радченко, Сергей Карякин, Елена Муравьёва, Андрей Межулис
Описание:Лидия и Аркадий вместе десять лет – кажется, все кризисы и бури семейной жизни позади. Неожиданно примерный семьянин Аркадий, разменяв пятый десяток, влюбляется в свою студентку. У них завязывается бурный роман. Но внезапно Аркадий умирает, и всё тайное становится явным. Лидия узнаёт о молодой любовнице покойного мужа. Девушка беременна и хочет избавиться от ребёнка. У Лидии нет детей, так как она страдает бесплодием. Лидия пытается отговорить эту девушку от необдуманного шага и берётся опекать её…







Релиз от:


Качество: SATRip-AVC
Формат: MKV
Видео кодек: H.264
Аудио кодек: AC3
Видео: MPEG4 Video (H264), 720x400, 25fps,1400 Kbps,bit/pixel 0.194
Аудио: AC3 48000Hz, stereo, 192kbps,2 ch


Общее
Уникальный идентификатор : 195467208639366779976514508289780001826 (0x930D9D725F55E052A1FDDB202A74AC22)
Полное имя : I:\Чужие и близкие\01 серия_Чужие и близкие_rip by_Aleksan55.mkv
Формат : Matroska
Версия формата : Version 2
Размер файла : 509 Мбайт
Продолжительность : 44 м.
Общий поток : 1594 Кбит/сек
Дата кодирования : UTC 2016-12-25 13:42:11
Программа кодирования : mkvmerge v7.8.0 ('River Man') 32bit built on Apr 3 2015 12:11:22
Библиотека кодирования : libebml v1.3.1 + libmatroska v1.4.2

Видео
Идентификатор : 1
Формат : AVC
Формат/Информация : Advanced Video Codec
Профиль формата : High@L3.1
Параметр CABAC формата : Да
Параметр ReFrames формата : 14 кадров
Идентификатор кодека : V_MPEG4/ISO/AVC
Продолжительность : 44 м.
Битрейт : 1400 Кбит/сек
Ширина : 720 пикселей
Высота : 400 пикселей
Соотношение сторон : 16:9
Режим частоты кадров : Постоянный
Частота кадров : 25,000 кадров/сек
Цветовое пространство : YUV
Субдискретизация насыщенности : 4:2:0
Битовая глубина : 8 бит
Тип развёртки : Прогрессивная
Бит/(Пиксели*Кадры) : 0.194
Размер потока : 438 Мбайт (86%)
Библиотека кодирования : x264 core 148 r2638 7599210
Настройки программы : cabac=1 / ref=14 / deblock=1:-1:-1 / analyse=0x3:0x133 / me=umh / subme=9 / psy=1 / psy_rd=1.00:0.15 / mixed_ref=0 / me_range=32 / chroma_me=1 / trellis=2 / 8x8dct=1 / cqm=0 / deadzone=21,11 / fast_pskip=0 / chroma_qp_offset=-3 / threads=3 / lookahead_threads=3 / sliced_threads=0 / nr=0 / decimate=0 / interlaced=0 / bluray_compat=0 / constrained_intra=0 / bframes=14 / b_pyramid=2 / b_adapt=1 / b_bias=0 / direct=3 / weightb=1 / open_gop=0 / weightp=2 / keyint=250 / keyint_min=25 / scenecut=40 / intra_refresh=0 / rc_lookahead=60 / rc=2pass / mbtree=1 / bitrate=1400 / ratetol=1.0 / qcomp=0.85 / qpmin=0 / qpmax=40 / qpstep=4 / cplxblur=20.0 / qblur=0.5 / ip_ratio=1.40 / aq=1:1.20
Default : Да
Forced : Нет
Цветовой диапазон : Limited
Основные цвета : BT.601 PAL
Характеристики трансфера : BT.470 System B, BT.470 System G
Коэффициенты матрицы : BT.601

Аудио
Идентификатор : 2
Формат : AC-3
Формат/Информация : Audio Coding 3
Расширение режима : CM (complete main)
Параметр Endianness формата : Big
Идентификатор кодека : A_AC3
Продолжительность : 44 м.
Вид битрейта : Постоянный
Битрейт : 192 Кбит/сек
Каналы : 2 канала
Расположение каналов : Front: L R
Частота : 48,0 КГц
Метод сжатия : С потерями
Размер потока : 61,3 Мбайт (12%)
Default : Да
Forced : Нет
Внимание! Раздача ведётся путём добавления новых серий; при каждом добавлении создаётся новый торрент.
Чтобы начать докачку новой серии, пользователям необходимо сделать следующее:
1. Остановить скачивание;
2. Удалить старый торрент у себя из клиента (старые серии удалять не надо);
3. Скачать новый торрент и запустить его у себя в клиенте вместо старого, при этом указать клиенту путь в старую папку куда и должно происходить скачивание новых серий. Ваш клиент при этом должен произвести хеширование (проверку) старой папки и будет докачивать только те серии, которых у вас ещё нет. Старые серии при этом не удаляются, а продолжают раздаваться! Eсли вы уже удалили старые серии, то предотвратить повторную закачку старых серий можно, отжав галочку в соответствующих местах при запуске нового торрента.


Рекламы нет.Добавлены 3-4 серия.pb.wtf



Скачать Чужие и близкие через торрент http://s017.radikal.ru/i406/1612/77/bdd3929bf374.jpg Скачать фильм Чужие и близкие через торрент бесплантно в хорошем качестве Описание:Лидия и Аркадий вместе десять лет – кажется, все кризисы и бури семейной жизни позади. Неожиданно примерный семьянин Аркадий, ... 10 10 2
Торрент: Зарегистрирован [2016-12-25 20:32] · скачан: 68 раз
Статус: √ проверено
Размер: 2.03 GB
Как cкачать? Как скачать Чужие и близкие через торрент | qTorrent

% Раздел Тема Автор DL S | L
Наши сериалы [ 10.18 GB ] Чужие и близкие / Серии: 1-4 из 4 [2016 Мело HDTV 1080i] bober100 Скачать
1 | 0

28-11-2019 20:33  

Отключить всю рекламу на сайте

    Дорогой пользователь! Огромная просьба, поблагодарите релизера, оцените раздачу и оставьте свои комментарий, если Вы скачали Чужие и близкие через торрент бесплатно! Внесите свою лепту в развитие PiratBit!
    Комментировать посты могут только пользователи прошедшие не сложную регистрацию
    Показать сообщения:    

    Чужие и близкие через торрент
    Скачать бесплатно Чужие и близкие
    Чужие и близкие скачать торрент
    Чужие и близкие смотреть онлайн
    Cкачать фильм Чужие и близкие бесплатно
    Чужие и близкие скачать торрент в хорошем качестве
    Чужие и близкие смотреть онлайн бесплатно в хорошем качестве


    Вы не можете начинать темы
    Вы не можете отвечать на сообщения
    Вы не можете редактировать свои сообщения
    Вы не можете удалять свои сообщения
    Вы не можете голосовать в опросах
    Вы не можете прикреплять файлы к сообщениям
    Вы можете скачивать файлы