Ссылка на приватное зеркало нашего сайта всего за 1$. Внимание количество ограничено!!!

2 сезон

iTunes

1 сезон

1

iTunes

iTunes

iTunes

1 сезон

RePack

30

ИГРА 18+

pack

ВАЖНО

!!Акция!!

Alien_RageХит недели

RePack

MK11
pack

Забери бонус

RePack

jed

!!Акция!!

Alien_Rage

RePack

fifa19

RePack

Assassins Creed: Odyssey

RePack

NEED FOR SPEED™ PAYBACK

4 сезон

9 сезон

Бесстыжие 9 сезон

Все сериалы

все сериалы на PB.wtf

RePack

FAR CRY 5
  

Бессонница / Insomnia (Кристофер Нолан ) [2002, триллер, драма, детектив, BDRip 720p от potroks] DUB, MVO, AVO pb.wtf

Бессонница через торрент pb.wtf

Размер: 7.95 GB | Добавлен: 3 года 10 мес. назад | Торрент скачан:170 раз
Скачать  

25-12-2016 18:22 Бессонница Скачать торрент  

Бессонница / Insomnia

Год выпуска: 2002
Страна: США, Канада / Summit Entertainment, Insomnia Productions...
Жанр: триллер, драма, детектив
Продолжительность: 01:58:13
Перевод: Дубляж [R5], профессиональный (многоголосый), aвторский (одноголосый)
Субтитры: русские, английские (Full + SDH + SDH-Colored)
Навигация по главам: есть
Режиссер: Кристофер Нолан
В ролях:

Аль Пачино (Will Dormer), Робин Уильямс (Walter Finch), Хилари Суэнк (Ellie Burr), Мартин Донован (Hap Eckhart), Мора Тирни (Rachel Clement), Никки Кэтт (Fred Duggar), Пол Дули (Chief Nyback), Ларри Холден (Farrell), Джонатан Джексон (Randy Stetz), Кристал Лоу (Kay Connell), Оливер ’Оли’ Земен (Pilot), Джей Бразо (Francis)
Описание: Опытный детектив полиции Лос-Анджелеса Уилл Дормер вместе со своим напарником направлен в маленький городок на Аляске, чтобы расследовать убийство семнадцатилетней девушки. Помощником Дормера также становится проницательный детектив местной полиции Элли Бур.

Качество: BDRip 720p
Формат: MKV
Видео: AVC, 1280x534 (2.40:1), 4647 kbps, 23,976 fps, 0,284 bpp
Аудио №1: DTS / 5.1 / 48 kHz / 755 kbps / 24 bit | DUB - R5
Аудио №2: AC3 / 5.1 / 48 kHz / 384 kbps / 16 bit | MVO
Аудио №3: AC3 / 5.1 / 48 kHz / 640 kbps / 16 bit | DVO - П.Гланц и И.Королева
Аудио №4: AC3 / 5.1 / 48 kHz / 640 kbps / 16 bit | АVO - А.Гаврилов
Аудио №5: AC3 / 5.1 / 48 kHz / 640 kbps / 16 bit | АVO - Ю.Живов
Аудио №6: AC3 / 5.1 / 48 kHz / 640 kbps / 16 bit | АVO - Е.Гаевский
Аудио №7: AC3 / 5.1 / 48 kHz / 640 kbps / 16 bit | VO - А.Киреев
Аудио №8: AC3 / 5.1 / 48 kHz / 640 kbps / 16 bit | ENG
General
Unique ID : 253922549027229706956348520720811471128 (0xBF07B43E1B3A120F9C0CD7818C84B118)
Complete name : D:\Bessonnitca.2002.7xRus.Eng.BDRip.720p.-HELLYWOOD.mkv
Format : Matroska
Format version : Version 4 / Version 2
File size : 7.95 GiB
Duration : 1 h 58 min
Overall bit rate : 9 626 kb/s
Movie name : Insomnia (2002)
Encoded date : UTC 2016-12-25 17:56:30
Writing application : mkvmerge v5.9.0 ('On The Loose') built on Dec 15 2012 16:39:58
Writing library : libebml v1.3.0 + libmatroska v1.4.0

Video
ID : 1
Format : AVC
Format/Info : Advanced Video Codec
Format profile : High@L4.1
Format settings, CABAC : Yes
Format settings, ReFrames : 9 frames
Codec ID : V_MPEG4/ISO/AVC
Duration : 1 h 58 min
Bit rate : 4 647 kb/s
Width : 1 280 pixels
Height : 534 pixels
Display aspect ratio : 2.40:1
Frame rate mode : Constant
Frame rate : 23.976 FPS
Color space : YUV
Chroma subsampling : 4:2:0
Bit depth : 8 bits
Scan type : Progressive
Bits/(Pixel*Frame) : 0.284
Stream size : 3.68 GiB (46%)
Title : potroks
Writing library : x264 core 146 r2538 121396c
Encoding settings : cabac=1 / ref=9 / deblock=1:-3:-3 / analyse=0x3:0x113 / me=umh / subme=11 / psy=1 / psy_rd=0.98:0.00 / mixed_ref=1 / me_range=48 / chroma_me=1 / trellis=2 / 8x8dct=1 / cqm=0 / deadzone=21,11 / fast_pskip=0 / chroma_qp_offset=-2 / threads=9 / lookahead_threads=2 / sliced_threads=0 / nr=0 / decimate=0 / interlaced=0 / bluray_compat=0 / constrained_intra=0 / bframes=10 / b_pyramid=2 / b_adapt=2 / b_bias=0 / direct=3 / weightb=1 / open_gop=0 / weightp=2 / keyint=240 / keyint_min=23 / scenecut=40 / intra_refresh=0 / rc_lookahead=60 / rc=2pass / mbtree=0 / bitrate=4647 / ratetol=1.0 / qcomp=0.70 / qpmin=0 / qpmax=69 / qpstep=4 / cplxblur=20.0 / qblur=0.5 / vbv_maxrate=14000 / vbv_bufsize=14000 / nal_hrd=none / filler=0 / ip_ratio=1.40 / pb_ratio=1.30 / aq=1:0.80
Language : English
Default : Yes
Forced : No

Audio #1
ID : 2
Format : DTS
Format/Info : Digital Theater Systems
Mode : 16
Format settings, Endianness : Big
Codec ID : A_DTS
Duration : 1 h 58 min
Bit rate mode : Constant
Bit rate : 755 kb/s
Channel(s) : 6 channels
Channel positions : Front: L C R, Side: L R, LFE
Sampling rate : 48.0 kHz
Frame rate : 93.750 FPS (512 spf)
Bit depth : 24 bits
Compression mode : Lossy
Stream size : 638 MiB (8%)
Title : Dub | DTS 5.1 @ 768 kbps - R5
Language : Russian
Default : Yes
Forced : No

Audio #2
ID : 3
Format : AC-3
Format/Info : Audio Coding 3
Mode extension : CM (complete main)
Format settings, Endianness : Big
Codec ID : A_AC3
Duration : 1 h 58 min
Bit rate mode : Constant
Bit rate : 384 kb/s
Channel(s) : 6 channels
Channel positions : Front: L C R, Side: L R, LFE
Sampling rate : 48.0 kHz
Frame rate : 31.250 FPS (1536 spf)
Compression mode : Lossy
Stream size : 325 MiB (4%)
Title : MVO | DD 5.1 @ 384 kbps
Language : Russian
Default : No
Forced : No

Audio #3
ID : 4
Format : AC-3
Format/Info : Audio Coding 3
Mode extension : CM (complete main)
Format settings, Endianness : Big
Codec ID : A_AC3
Duration : 1 h 58 min
Bit rate mode : Constant
Bit rate : 640 kb/s
Channel(s) : 6 channels
Channel positions : Front: L C R, Side: L R, LFE
Sampling rate : 48.0 kHz
Frame rate : 31.250 FPS (1536 spf)
Compression mode : Lossy
Stream size : 541 MiB (7%)
Title : DVO | DD 5.1 @ 640 kbps - Glantz and Koroleva
Language : Russian
Default : No
Forced : No

Audio #4
ID : 5
Format : AC-3
Format/Info : Audio Coding 3
Mode extension : CM (complete main)
Format settings, Endianness : Big
Codec ID : A_AC3
Duration : 1 h 58 min
Bit rate mode : Constant
Bit rate : 640 kb/s
Channel(s) : 6 channels
Channel positions : Front: L C R, Side: L R, LFE
Sampling rate : 48.0 kHz
Frame rate : 31.250 FPS (1536 spf)
Compression mode : Lossy
Stream size : 541 MiB (7%)
Title : AVO | DD 5.1 @ 640 kbps - A.Gavrilov
Language : Russian
Default : No
Forced : No

Audio #5
ID : 6
Format : AC-3
Format/Info : Audio Coding 3
Mode extension : CM (complete main)
Format settings, Endianness : Big
Codec ID : A_AC3
Duration : 1 h 58 min
Bit rate mode : Constant
Bit rate : 640 kb/s
Channel(s) : 6 channels
Channel positions : Front: L C R, Side: L R, LFE
Sampling rate : 48.0 kHz
Frame rate : 31.250 FPS (1536 spf)
Compression mode : Lossy
Stream size : 541 MiB (7%)
Title : AVO | DD 5.1 @ 640 kbps - Yu.Zhivov
Language : Russian
Default : No
Forced : No

Audio #6
ID : 7
Format : AC-3
Format/Info : Audio Coding 3
Mode extension : CM (complete main)
Format settings, Endianness : Big
Codec ID : A_AC3
Duration : 1 h 58 min
Bit rate mode : Constant
Bit rate : 640 kb/s
Channel(s) : 6 channels
Channel positions : Front: L C R, Side: L R, LFE
Sampling rate : 48.0 kHz
Frame rate : 31.250 FPS (1536 spf)
Compression mode : Lossy
Stream size : 541 MiB (7%)
Title : AVO | DD 5.1 @ 640 kbps - E.Gaevsky
Language : Russian
Default : No
Forced : No

Audio #7
ID : 8
Format : AC-3
Format/Info : Audio Coding 3
Mode extension : CM (complete main)
Format settings, Endianness : Big
Codec ID : A_AC3
Duration : 1 h 58 min
Bit rate mode : Constant
Bit rate : 640 kb/s
Channel(s) : 6 channels
Channel positions : Front: L C R, Side: L R, LFE
Sampling rate : 48.0 kHz
Frame rate : 31.250 FPS (1536 spf)
Compression mode : Lossy
Stream size : 541 MiB (7%)
Title : VO | DD 5.1 @ 640 kbps - A.Kireev
Language : Russian
Default : No
Forced : No

Audio #8
ID : 9
Format : AC-3
Format/Info : Audio Coding 3
Mode extension : CM (complete main)
Format settings, Endianness : Big
Codec ID : A_AC3
Duration : 1 h 58 min
Bit rate mode : Constant
Bit rate : 640 kb/s
Channel(s) : 6 channels
Channel positions : Front: L C R, Side: L R, LFE
Sampling rate : 48.0 kHz
Frame rate : 31.250 FPS (1536 spf)
Compression mode : Lossy
Stream size : 541 MiB (7%)
Title : Original | DD 5.1 @ 640 kbps
Language : English
Default : No
Forced : No

Text #1
ID : 10
Format : UTF-8
Codec ID : S_TEXT/UTF8
Codec ID/Info : UTF-8 Plain Text
Language : Russian
Default : No
Forced : No

Text #2
ID : 11
Format : UTF-8
Codec ID : S_TEXT/UTF8
Codec ID/Info : UTF-8 Plain Text
Title : Full
Language : English
Default : No
Forced : No

Text #3
ID : 12
Format : UTF-8
Codec ID : S_TEXT/UTF8
Codec ID/Info : UTF-8 Plain Text
Title : SDH
Language : English
Default : No
Forced : No

Text #4
ID : 13
Format : UTF-8
Codec ID : S_TEXT/UTF8
Codec ID/Info : UTF-8 Plain Text
Title : SDH-Colored
Language : English
Default : No
Forced : No

Menu
00:00:00.000 : en:(01)00:00:00:000
00:02:56.050 : en:(02)00:02:56:050
00:06:21.798 : en:(03)00:06:21:798
00:10:12.945 : en:(04)00:10:12:945
00:12:43.429 : en:(05)00:12:43:429
00:16:30.239 : en:(06)00:16:30:239
00:21:45.554 : en:(07)00:21:45:554
00:23:50.804 : en:(08)00:23:50:804
00:27:06.666 : en:(09)00:27:06:666
00:31:39.939 : en:(10)00:31:39:939
00:35:00.056 : en:(11)00:35:00:056
00:37:46.681 : en:(12)00:37:46:681
00:41:21.645 : en:(13)00:41:21:645
00:46:06.305 : en:(14)00:46:06:305
00:48:51.386 : en:(15)00:48:51:386
00:51:20.535 : en:(16)00:51:20:535
00:56:52.283 : en:(17)00:56:52:283
01:01:18.675 : en:(18)01:01:18:675
01:04:13.724 : en:(19)01:04:13:724
01:06:42.832 : en:(20)01:06:42:832
01:11:51.557 : en:(21)01:11:51:557
01:14:59.077 : en:(22)01:14:59:077
01:19:45.280 : en:(23)01:19:45:280
01:25:43.555 : en:(24)01:25:43:555
01:29:22.774 : en:(25)01:29:22:774
01:34:10.394 : en:(26)01:34:10:394
01:36:56.644 : en:(27)01:36:56:644
01:42:47.870 : en:(28)01:42:47:870
01:46:13.325 : en:(29)01:46:13:325
01:49:02.827 : en:(30)01:49:02:827
01:54:04.838 : en:(31)01:54:04:838
01:58:13.294 : en:(32)01:58:13:294
pb.wtf



Скачать Бессонница через торрент http://i88.fastpic.ru/big/2016/1225/2d/bce274dee1aa2aba8b5d49a18a0aeb2d.png Скачать фильм Бессонница через торрент бесплантно в хорошем качестве Описание: Опытный детектив полиции Лос-Анджелеса Уилл Дормер вместе со своим напарником направлен в маленький городок на Аляске, чтобы ... 9.9 10 10
Info! Золотая раздача, скачанное не засчитывается.
Торрент: Зарегистрирован [2016-12-25 18:22] · скачан: 170 раз
Статус: √ проверено
Размер: 7.95 GB
Как cкачать? Как скачать Бессонница через торрент | qTorrent

28-11-2019 20:33  

Отключить всю рекламу на сайте

    Дорогой пользователь! Огромная просьба, поблагодарите релизера, оцените раздачу и оставьте свои комментарий, если Вы скачали Бессонница через торрент бесплатно! Внесите свою лепту в развитие PiratBit!
    Комментировать посты могут только пользователи прошедшие не сложную регистрацию
    Показать сообщения:    

    Бессонница через торрент
    Скачать бесплатно Бессонница
    Бессонница скачать торрент
    Бессонница смотреть онлайн
    Cкачать фильм Бессонница бесплатно
    Бессонница скачать торрент в хорошем качестве
    Бессонница смотреть онлайн бесплатно в хорошем качестве


    Вы не можете начинать темы
    Вы не можете отвечать на сообщения
    Вы не можете редактировать свои сообщения
    Вы не можете удалять свои сообщения
    Вы не можете голосовать в опросах
    Вы не можете прикреплять файлы к сообщениям
    Вы можете скачивать файлы