Ссылка на приватное зеркало нашего сайта всего за 1$. Внимание количество ограничено!!!

2 сезон

iTunes

1 сезон

1

2 сезон

2 сезон

iTunes

1 сезон

RePack

30

Ultimate

ВАЖНО

ИГРА 18+

pack

RePack

MK11
pack

Забери бонус

RePack

jed

!!Акция!!

Alien_Rage

RePack

fifa19

RePack

Assassins Creed: Odyssey

RePack

NEED FOR SPEED™ PAYBACK

4 сезон

9 сезон

Бесстыжие 9 сезон

Все сериалы

все сериалы на PB.wtf

RePack

FAR CRY 5
  

В четырех стенах / The Great Indoors / Сезон 1 / Серии 1-10 из 13 [2016 г., комедия, WEB-DLRip] [DVO] (Кубик в Кубе) pb.wtf

В четырех стенах через торрент pb.wtf

Размер: 4.13 GB | Добавлен: 3 года 9 мес. назад | Торрент скачан:11 раз
Скачать  

26-12-2016 10:51 В четырех стенах Скачать торрент  

В четырех стенах / The Great Indoors
Год выхода: 2016
Выпущено: США, Великобритания
Жанр: комедия
Перевод: Профессиональный (двухголосый закадровый) Кубик в Кубе
Продолжительность: 00:25:00
Субтитры: нет

Режиссёр: Энди Экерман / Andy Ackerman

В ролях: Джоэл МакХэйл / Joel McHale, Крис Уильямс / Chris Williams, Дебора Бэйкер мл. / Deborah Baker Jr., Шон Браун / Shaun Brown, Швона Лаветт Чунг / Shvona Lavette Chung

Описание: Объездивший весь свет репортер из-за перенесенной травмы вынужден сидеть в заточении на офисной работе в диджитал отделе популярного журнала в окружении продвинутых подростков.



Работа со звуком - messafan.

Качество: WEB-DLRip
Формат: AVI
Видео: AVI, 720x400 (1.80:1), 23.976 fps, XviD MPEG-4 ~1998 kbps avg, 0.29 bit/pixel
Аудио #1: 48.0 KHz, AC3, 3/2 (L,C,R,l,r) + LFE ch, ~384.00 kbps avg |Кубик в кубе|
Аудио #2: 48.0 KHz, AC3, 3/2 (L,C,R,l,r) + LFE ch, ~384.00 kbps avg |Original|
General
Complete name : E:\The Great Indoors Season 1 CasStudio.TV\The.Great.Indoors.s01e01.rus.eng.CasStudio.TV.avi
Format : AVI
Format/Info : Audio Video Interleave
File size : 429 MiB
Duration : 21mn 33s
Overall bit rate : 2 782 Kbps
Writing application : VirtualDubMod 1.5.10.2 (build 2540/release)
Writing library : VirtualDubMod build 2540/release

Video
ID : 0
Format : MPEG-4 Visual
Format profile : Advanced Simple@L5
Format settings, BVOP : 1
Format settings, QPel : No
Format settings, GMC : No warppoints
Format settings, Matrix : Default (MPEG)
Codec ID : XVID
Codec ID/Hint : XviD
Duration : 21mn 33s
Bit rate : 2 000 Kbps
Width : 720 pixels
Height : 400 pixels
Display aspect ratio : 16:9
Frame rate : 23.976 fps
Color space : YUV
Chroma subsampling : 4:2:0
Bit depth : 8 bits
Scan type : Progressive
Compression mode : Lossy
Bits/(Pixel*Frame) : 0.290
Stream size : 308 MiB (72%)
Writing library : XviD 73

Audio #1
ID : 1
Format : AC-3
Format/Info : Audio Coding 3
Mode extension : CM (complete main)
Format settings, Endianness : Big
Codec ID : 2000
Duration : 21mn 33s
Bit rate mode : Constant
Bit rate : 384 Kbps
Channel(s) : 6 channels
Channel positions : Front: L C R, Side: L R, LFE
Sampling rate : 48.0 KHz
Compression mode : Lossy
Stream size : 59.2 MiB (14%)
Alignment : Split accross interleaves
Interleave, duration : 42 ms (1.00 video frame)
Interleave, preload duration : 500 ms

Audio #2
ID : 2
Format : AC-3
Format/Info : Audio Coding 3
Mode extension : CM (complete main)
Format settings, Endianness : Big
Codec ID : 2000
Duration : 21mn 33s
Bit rate mode : Constant
Bit rate : 384 Kbps
Channel(s) : 6 channels
Channel positions : Front: L C R, Side: L R, LFE
Sampling rate : 48.0 KHz
Compression mode : Lossy
Stream size : 59.2 MiB (14%)
Alignment : Split accross interleaves
Interleave, duration : 42 ms (1.00 video frame)
Interleave, preload duration : 500 ms
Внимание! Раздача ведётся путём добавления новых серий; при каждом добавлении создётся новый торрент. Чтобы начать докачку новой серии, пользователям необходимо сделать следующее:
Остановить скачивание.
Удалить старый торрент у себя из клиента (старые серии удалять не надо).
Скачать новый торрент и запустить его у себя в клиенте вместо старого, при этом указать клиенту путь в старую папку куда и должно происходить скачивание новых серий.
Ваш клиент при этом должен произвести хеширование (проверку) старой папки (если не производит сам - помогите ему сделать это), и будет докачивать только те серии которых у вас ещё нет. Старые серии при этом не удаляются, а продолжают раздаваться!
Eсли вы уже удалили старые серии, то предотвратить повторную закачку старых серий можно, отжав галочку в соответсвующих местах при запуске нового торрента. По возможности, желательно не удалять старые серии как можно дольше чтобы релизёр не столько продолжал раздавать старые серии, а смог сконцентрироваться на новых.
pb.wtf



Скачать В четырех стенах через торрент http://i88.fastpic.ru/big/2016/1226/0c/bcc43cc3fcd37195062884dee466480c.jpg Скачать фильм В четырех стенах через торрент бесплантно в хорошем качестве Описание: Объездивший весь свет репортер из-за перенесенной травмы вынужден сидеть в заточении на офисной работе в диджитал отделе ... 10 10 3
Info! Серебряная раздача, засчитывается только 50% скачанного.
Торрент: Зарегистрирован [2017-02-05 08:58] · скачан: 11 раз
Статус: √ проверено
Размер: 4.13 GB
Как cкачать? Как скачать В четырех стенах через торрент | qTorrent



Последний раз редактировалось: killermax2013 (2017-02-05 08:58), всего редактировалось 1 раз

28-11-2019 20:33  

Отключить всю рекламу на сайте

24-01-2017 18:29 В четырех стенах Скачать торрент  

+3-7pb.wtf



05-02-2017 08:59 В четырех стенах Скачать торрент  

+8-10pb.wtf



    Дорогой пользователь! Огромная просьба, поблагодарите релизера, оцените раздачу и оставьте свои комментарий, если Вы скачали В четырех стенах через торрент бесплатно! Внесите свою лепту в развитие PiratBit!
    Комментировать посты могут только пользователи прошедшие не сложную регистрацию
    Показать сообщения:    

    В четырех стенах через торрент
    Скачать бесплатно В четырех стенах
    В четырех стенах скачать торрент
    В четырех стенах смотреть онлайн
    Cкачать фильм В четырех стенах бесплатно
    В четырех стенах скачать торрент в хорошем качестве
    В четырех стенах смотреть онлайн бесплатно в хорошем качестве


    Вы не можете начинать темы
    Вы не можете отвечать на сообщения
    Вы не можете редактировать свои сообщения
    Вы не можете удалять свои сообщения
    Вы не можете голосовать в опросах
    Вы не можете прикреплять файлы к сообщениям
    Вы можете скачивать файлы