2 сезон

iTunes

MVO

1

2 сезон

iTunes

iTunes

1 сезон

RePack

30

Новинка

ВАЖНО

ИГРА 18+

pack

RePack

MK11
pack

Легкие деньги

RePack

jed

RePack

fifa19

RePack

RDR2

RePack

NEED FOR SPEED™ PAYBACK

4 сезон

9 сезон

Бесстыжие 9 сезон

Все сериалы

все сериалы на PB.wtf

RePack

FAR CRY 5

Anonymous, добрый вечер, мы не успеваем собрать деньги на оплату серверов за декабрь и январь, помогите нам пожалуйста в это трудное время. В качестве благодарности мы отключим Вам всю рекламу на сайте (укажите свой ник в строку Ваше имя)!

×
  
Magnet ссылка

Пес Барбос и необычный кросс (Леонид Гайдай) [1961 г., Комедия, BDRip 1080p / 60 FPS, Не требуется Русский] pb.wtf

Пес Барбос и необычный кросс через торрент pb.wtf

Раздают: 1 [ 0 KB/s ]
Размер: 1.78 GB | Добавлен: 4 года назад | Торрент скачан:219 раз
Скачать  

26-12-2016 12:31 Пес Барбос и необычный кросс Скачать торрент  

Пес Барбос и необычный кросс
Год выпуска: 1961
Страна: СССР
Жанр: Комедия
Продолжительность: 00:10:28
Перевод: Не требуется Русский
Субтитры: Отсутствуют

Режиссер: Леонид Гайдай

Премьера в мире: 18 октября 1961

rating

В ролях: Евгений Моргунов. Юрий Никулин. Георгий Вицин

Описание: Что есть главное средство для поддержания мужской дружбы и просто для увлекательного времяпрепровождения? Правильно, это рыбалка. Трус, Балбес и Бывалый решили испытать эту радость жизни на себе, но на свою беду взяли они с собой пса Барбоса…

Качество: BDRip 1080p / 60 FPS
Формат: MKV
Видео кодек: AVC
Аудио кодек: AC3
Видео: AVC, 1480x1080, 59,940 fps, 24 Мбит/с
Аудио#1: AC3, 448 Кбит/с, 6 ch, 48.0 KHz
скриншот  скриншот  скриншот  скриншот  скриншот  скриншот  




Общее
Формат : Matroska
Версия формата : Version 2
Размер файла : 1,78 Гбайт
Продолжительность : 10 м. 28 с.
Общий поток : 24,3 Мбит/сек
Дата кодирования : UTC 2013-06-04 05:34:52
Программа кодирования : mkvmerge v3.4.0 ('Rapunzel') сборка от May 18 2010 22:32:11
Библиотека кодирования : libebml v0.8.0 + libmatroska v0.9.0

Видео
Идентификатор : 1
Формат : AVC
Формат/Информация : Advanced Video Codec
Профиль формата : High@L4.1
Параметр CABAC формата : Да
Параметр ReFrames формата : 4 кадра
Идентификатор кодека : V_MPEG4/ISO/AVC
Продолжительность : 10 м. 28 с.
Битрейт : 24,0 Мбит/сек
Ширина : 1480 пикселей
Высота : 1080 пикселей
Соотношение сторон : 1,370
Режим частоты кадров : Постоянный
Частота кадров : 59,940 кадров/сек
Цветовое пространство : YUV
Субдискретизация насыщенности : 4:2:0
Битовая глубина : 8 бит
Тип развёртки : Прогрессивная
Бит/(Пиксели*Кадры) : 0.251
Размер потока : 1,71 Гбайт (96%)
Заголовок : Rip by izomsk
Библиотека кодирования : x264 core 120 r2120kMod 0c7dab9
Настройки программы : cabac=1 / ref=4 / deblock=1:0:0 / analyse=0x3:0x113 / me=umh / subme=7 / psy=1 / fade_compensate=0.00 / psy_rd=1.00:0.00 / mixed_ref=1 / me_range=30 / chroma_me=1 / trellis=2 / 8x8dct=1 / cqm=0 / deadzone=21,11 / fast_pskip=1 / chroma_qp_offset=-2 / threads=12 / sliced_threads=1 / slices=12 / nr=0 / decimate=1 / interlaced=0 / bluray_compat=0 / constrained_intra=0 / bframes=9 / b_pyramid=2 / b_adapt=2 / b_bias=0 / direct=2 / weightb=1 / open_gop=0 / weightp=2 / keyint=300 / keyint_min=30 / scenecut=40 / intra_refresh=0 / rc=abr / mbtree=0 / bitrate=24000 / ratetol=1.0 / qcomp=0.60 / qpmin=10 / qpmax=51 / qpstep=4 / ip_ratio=1.40 / pb_ratio=1.30 / aq=1:1.00
Язык : Russian
Default : Да
Forced : Нет

Аудио
Идентификатор : 2
Формат : AC-3
Формат/Информация : Audio Coding 3
Расширение режима : CM (complete main)
Параметр Endianness формата : Big
Идентификатор кодека : A_AC3
Продолжительность : 10 м. 28 с.
Вид битрейта : Постоянный
Битрейт : 448 Кбит/сек
Каналы : 6 каналов
Расположение каналов : Front: L C R, Side: L R, LFE
Частота : 48,0 КГц
Частота кадров : 31,250 кадров/сек (1536 spf)
Метод сжатия : С потерями
Размер потока : 33,5 Мбайт (2%)
Язык : Russian
Default : Да
Forced : Нет

pb.wtf



Скачать Пес Барбос и необычный кросс через торрент http://pic1.kartinco.top/images/11/vpqji.jpg Скачать фильм Пес Барбос и необычный кросс через торрент бесплантно в хорошем качестве Описание: Что есть главное средство для поддержания мужской дружбы и просто для увлекательного времяпрепровождения? Правильно, это рыбалка. ... 9.4 10 16
Info! Золотая раздача, скачанное не засчитывается.
Торрент: Зарегистрирован [2016-12-26 12:31] · скачан: 219 раз
Статус: # сомнительно
Размер: 1.78 GB
Как cкачать? Как скачать Пес Барбос и необычный кросс через торрент | UTorrent

% Раздел Тема Автор DL S | L
Кино СССР [ 559 MB ] Пес Барбос и необычный кросс. Самогонщики [1961-1962 СССР короткометражка BDRip-AVC от AVP Studio] AVP Studio Скачать
1 | 0
Кино СССР [ 1.09 GB ] Пес Барбос и необычный кросс. Самогонщики [1961-1962 СССР короткометражка BDRip 720p от AVP Studio] AVP Studio Скачать
1 | 0
Кино СССР [ 556 MB ] Пес Барбос и необычный кросс. Самогонщики [1961-1962 СССР короткометражка BDRip от AVP Studio] AVP Studio Скачать
1 | 0
Фильмы (BDRip, HDrip-AVC) (48-60 fps) [ 311 MB ] Пес Барбос и необычный кросс [1961 короткометражка BDRip-AVC 60fps Original] от R.G. HD-Films Tiberiumsun69 Скачать
21 | 1
Кино СССР [ 147 MB ] Пес Барбос и необычный кросс [1961 короткрометражный DVDRip] roller tm Скачать
1 | 0
Кино СССР [ 413 MB ] Пес Барбос и необычный кросс. Самогонщики [1961 короткрометражный DVDRip Оригинал] wekotila Скачать
1 | 0
Видео для КПК и Смартфонов [ 80 MB ] Самогонщики / Пёс Барбос и необычный кросс [1961 MP4 320*240 DVDRip] Страна Скачать
1 | 0

28-11-2019 20:33  

Отключить всю рекламу на сайте

27-12-2016 11:59 Пес Барбос и необычный кросс Скачать торрент  

Реально спасибо конечно, но прежде чем делать какой нибуть рип проверьте на наличее его на нащем трекере! Вот к примеру такой же рип!pb.wtf



    Дорогой пользователь! Огромная просьба, поблагодарите релизера, оцените раздачу и оставьте свои комментарий, если Вы скачали Пес Барбос и необычный кросс через торрент бесплатно! Внесите свою лепту в развитие PiratBit!
    Комментировать посты могут только пользователи прошедшие не сложную регистрацию
    Показать сообщения:    

    Пес Барбос и необычный кросс через торрент
    Скачать бесплатно Пес Барбос и необычный кросс
    Пес Барбос и необычный кросс скачать торрент
    Пес Барбос и необычный кросс смотреть онлайн
    Cкачать фильм Пес Барбос и необычный кросс бесплатно
    Пес Барбос и необычный кросс скачать торрент в хорошем качестве
    Пес Барбос и необычный кросс смотреть онлайн бесплатно в хорошем качестве


    Вы не можете начинать темы
    Вы не можете отвечать на сообщения
    Вы не можете редактировать свои сообщения
    Вы не можете удалять свои сообщения
    Вы не можете голосовать в опросах
    Вы не можете прикреплять файлы к сообщениям
    Вы можете скачивать файлы