Ссылка на приватное зеркало нашего сайта всего за 1$. Внимание количество ограничено!!!

2 сезон

iTunes

1 сезон

1

2 сезон

2 сезон

iTunes

1 сезон

RePack

30

Новинка

ВАЖНО

ИГРА 18+

pack

RePack

MK11
pack

Забери бонус

RePack

jed

!!Акция!!

Alien_Rage

RePack

fifa19

RePack

Assassins Creed: Odyssey

RePack

NEED FOR SPEED™ PAYBACK

4 сезон

9 сезон

Бесстыжие 9 сезон

Все сериалы

все сериалы на PB.wtf

RePack

FAR CRY 5
  

Земляне / People of Earth / Сезон 1 / Серий 10 из 10 (Грег Дэниелс, Родмен Флендер) [2016, фантастика, комедия, триллер, HDTVRip] MVO / Jaskier pb.wtf

Земляне через торрент pb.wtf

Размер: 2.45 GB | Добавлен: 3 года 10 мес. назад | Торрент скачан:126 раз
Скачать  

27-12-2016 05:25 Земляне Скачать торрент  

Земляне / People of Earth
Год выпуска: 2016
Страна: США, Conaco, Warner Horizon Television
Жанр: фантастика, комедия, триллер
Всего серий: 10
Продолжительность: 10 х ~00:20:00
Перевод: Профессиональный (многоголосый) | Jaskier
Субтитры: отсутствуют

Режиссер: Грег Дэниелс, Родмен Флендер

rating

В ролях:

Майкл Кэссиди, Уайатт Ценач, Ана Гастейер, Брайан Хаски, Люка Джонс, Дебра МакКейб, Трэйси Чимо, Крис Глисон

Описание:

Это история о репортёре-скептике Оззи Грэме, в рамках журналистского расследования посещающем группу поддержки для людей, переживших контакт с пришельцами. Чем больше Оззи общается с членами странного кружка, тем больше он видит правды в их словах. Доходит, наконец, до того, что главный герой и сам начинает подозревать, что когда-то был похищен инопланетянами.

Качество: HDTVRip
Формат: AVI
Видео кодек: XviD
Аудио кодек: AC3

Видео: 720x400 (1.80:1), 23.976 fps, XviD build 50 ~1400 kbps avg, 0.21 bit/pixel
Аудио#1: Rus: 48 kHz, MPEG Layer 3, 2 ch, ~128.00 kbps avg (Jaskier)
Аудио#2: Eng: 48 kHz, MPEG Layer 3, 2 ch, ~128.00 kbps avg

Релиз-группа:

Присутствует звуковая реклама(вначале и вконце серии по 12 сек.)
Общее
Полное имя : D:\People of Earth (Season 01) Jaskier\People.of.Earth.S01E02.HDTVRip.Rus.Eng.Jaskier.avi
Формат : AVI
Формат/Информация : Audio Video Interleave
Размер файла : 251 Мбайт
Продолжительность : 21 м. 28 с.
Общий поток : 1632 Кбит/сек
Программа кодирования : VirtualDubMod 1.5.10.3 | www.virtualdub-fr.org || (build 2550/release)
Библиотека кодирования : VirtualDubMod build 2550/release

Видео
Идентификатор : 0
Формат : MPEG-4 Visual
Профиль формата : Advanced Simple@L5
Параметр BVOP формата : 1
Параметр QPel формата : Нет
Параметр GMC формата : Без точки перехода
Параметр матрицы формата : Default (MPEG)
Идентификатор кодека : XVID
Идентификатор кодека/Подсказка : XviD
Продолжительность : 21 м. 28 с.
Битрейт : 1362 Кбит/сек
Ширина : 720 пикселей
Высота : 400 пикселей
Соотношение сторон : 16:9
Частота кадров : 23,976 (23976/1000) кадра/сек
Цветовое пространство : YUV
Субдискретизация насыщенности : 4:2:0
Битовая глубина : 8 бит
Тип развёртки : Прогрессивная
Метод сжатия : С потерями
Бит/(Пиксели*Кадры) : 0.197
Размер потока : 209 Мбайт (83%)
Библиотека кодирования : XviD 73

Аудио #1
Идентификатор : 1
Формат : MPEG Audio
Версия формата : Version 1
Профиль формата : Layer 3
Режим : Joint stereo
Расширение режима : MS Stereo
Идентификатор кодека : 55
Идентификатор кодека/Подсказка : MP3
Продолжительность : 21 м. 28 с.
Вид битрейта : Постоянный
Битрейт : 128 Кбит/сек
Каналы : 2 канала
Частота : 48,0 КГц
Метод сжатия : С потерями
Размер потока : 19,7 Мбайт (8%)
Выравнивание : Соединение по промежуткам
Продолжительность промежутка : 42 мс. (1,00 видеокадр)
Время предзагрузки промежутка : 504 мс.

Аудио #2
Идентификатор : 2
Формат : MPEG Audio
Версия формата : Version 1
Профиль формата : Layer 3
Режим : Joint stereo
Расширение режима : MS Stereo
Идентификатор кодека : 55
Идентификатор кодека/Подсказка : MP3
Продолжительность : 21 м. 28 с.
Вид битрейта : Постоянный
Битрейт : 128 Кбит/сек
Каналы : 2 канала
Частота : 48,0 КГц
Метод сжатия : С потерями
Размер потока : 19,7 Мбайт (8%)
Выравнивание : Соединение по промежуткам
Продолжительность промежутка : 42 мс. (1,00 видеокадр)
Время предзагрузки промежутка : 504 мс.
скриншот   скриншот   скриншот   скриншот  
pb.wtf



Скачать Земляне через торрент http://pic1.kartinco.top/images/11/e4bp3.jpg Скачать фильм Земляне через торрент бесплантно в хорошем качестве Описание: Это история о репортёре-скептике Оззи Грэме, в рамках журналистского расследования посещающем группу поддержки для людей, ... 9 10 7
Торрент: Зарегистрирован [2016-12-27 05:25] · скачан: 126 раз
Статус: √ проверено
Размер: 2.45 GB
Как cкачать? Как скачать Земляне через торрент | qTorrent

28-11-2019 20:33  

Отключить всю рекламу на сайте

    Дорогой пользователь! Огромная просьба, поблагодарите релизера, оцените раздачу и оставьте свои комментарий, если Вы скачали Земляне через торрент бесплатно! Внесите свою лепту в развитие PiratBit!
    Комментировать посты могут только пользователи прошедшие не сложную регистрацию
    Показать сообщения:    

    Земляне через торрент
    Скачать бесплатно Земляне
    Земляне скачать торрент
    Земляне смотреть онлайн
    Cкачать фильм Земляне бесплатно
    Земляне скачать торрент в хорошем качестве
    Земляне смотреть онлайн бесплатно в хорошем качестве


    Вы не можете начинать темы
    Вы не можете отвечать на сообщения
    Вы не можете редактировать свои сообщения
    Вы не можете удалять свои сообщения
    Вы не можете голосовать в опросах
    Вы не можете прикреплять файлы к сообщениям
    Вы можете скачивать файлы