Ссылка на приватное зеркало нашего сайта всего за 1$. Внимание количество ограничено!!!

2 сезон

iTunes

1 сезон

1

iTunes

iTunes

iTunes

1 сезон

RePack

30

ИГРА 18+

pack

ВАЖНО

!!Акция!!

Alien_RageХит недели

RePack

MK11
pack

Забери бонус

RePack

jed

!!Акция!!

Alien_Rage

RePack

fifa19

RePack

Assassins Creed: Odyssey

RePack

NEED FOR SPEED™ PAYBACK

4 сезон

9 сезон

Бесстыжие 9 сезон

Все сериалы

все сериалы на PB.wtf

RePack

FAR CRY 5
  

Управление гневом / Anger Management (Питер Сигал) [2003, мелодрама, комедия, BDRip 720p by msltel] DUB pb.wtf

Управление гневом через торрент pb.wtf

Размер: 4.35 GB | Добавлен: 3 года 9 мес. назад | Торрент скачан:94 раза
Скачать  

27-12-2016 05:43 Управление гневом Скачать торрент  

Название: Управление гневом
Оригинальное название: Anger Management
Год выпуска: 2003
Страна: США
Жанр: мелодрама, комедия
Продолжительность: 01:45:58
Перевод: дублированный

Режиссёр: Питер Сигал

В ролях: Адам Сэндлер, Джек Николсон, Мариса Томей, Луис Гусман, Аллен Коверт, Линн Тигпен, Курт Фуллер, Джонатан Лоугрэн, Криста Аллен, Дженьюэри Джонс, Вуди Харрельсон, Джон Туртурро, Кевин Нилон, Конрад Гуд, Джина Гальего, Нэнси Карелл, Дон Даймонт, Айзек С. Синглтон мл., Рудольф Джулиани, Хезер Грэм

Описание: Скромному клерку отчаянно не везёт. Парня по обвинению в оскорблении бортпроводницы приговаривают к лечению у психиатра. Но верно говорят, что большинство психиатров сами немного безумны. Или сильно не в себе…



Качество: BDRip 720p
Формат: MKV
Видео: MPEG-4 AVC, 4641 Кбит/с, 1280x534, 23,976 кадра/с
Аудио 1: русский, AC3, 640 kbps, 6 ch, 48 kHz [дублированный]
Аудио 2: английский, AC3, 640 kbps, 6 ch, 48 kHz [оригинал]
Субтитры 1: русские
Субтитры 2: русские (К. Поздняков)
Субтитры 3: английские
Имеются неименованные главы/чаптеры.
Общее
Уникальный идентификатор : 216850848419119696566529674120409855642 (0xA323F4494F432F008F03E5C54AD7369A)
Полное имя : D:\Video\Управление гневом.2003.BDRip.720p by msltel.mkv
Формат : Matroska
Версия формата : Version 4 / Version 2
Размер файла : 4,35 Гбайт
Продолжительность : 1 ч. 45 м.
Общий поток : 5923 Кбит/сек
Название фильма : Rip by msltel
Дата кодирования : UTC 2016-12-26 03:16:17
Программа кодирования : mkvmerge v8.2.0 ('World of Adventure') 64bit
Библиотека кодирования : libebml v1.3.1 + libmatroska v1.4.2

Видео
Идентификатор : 1
Формат : AVC
Формат/Информация : Advanced Video Codec
Профиль формата : High@L4.1
Параметр CABAC формата : Да
Параметр ReFrames формата : 9 кадров
Идентификатор кодека : V_MPEG4/ISO/AVC
Продолжительность : 1 ч. 45 м.
Битрейт : 4641 Кбит/сек
Ширина : 1280 пикселей
Высота : 534 пикселя
Соотношение сторон : 2,40:1
Режим частоты кадров : Постоянный
Частота кадров : 23,976 (24000/1001) кадра/сек
Цветовое пространство : YUV
Субдискретизация насыщенности : 4:2:0
Битовая глубина : 8 бит
Тип развёртки : Прогрессивная
Бит/(Пиксели*Кадры) : 0.283
Размер потока : 3,40 Гбайт (78%)
Библиотека кодирования : x264 core 146 r2538 121396c
Настройки программы : cabac=1 / ref=9 / deblock=1:-1:-1 / analyse=0x3:0x113 / me=umh / subme=9 / psy=1 / psy_rd=1.00:0.15 / mixed_ref=1 / me_range=32 / chroma_me=1 / trellis=1 / 8x8dct=1 / cqm=0 / deadzone=21,11 / fast_pskip=0 / chroma_qp_offset=-3 / threads=6 / lookahead_threads=1 / sliced_threads=0 / nr=0 / decimate=1 / interlaced=0 / bluray_compat=0 / constrained_intra=0 / bframes=12 / b_pyramid=2 / b_adapt=2 / b_bias=0 / direct=1 / weightb=0 / open_gop=0 / weightp=2 / keyint=230 / keyint_min=23 / scenecut=40 / intra_refresh=0 / rc_lookahead=40 / rc=crf / mbtree=0 / crf=19.5 / qcomp=0.60 / qpmin=0 / qpmax=69 / qpstep=4 / vbv_maxrate=50000 / vbv_bufsize=62500 / crf_max=0.0 / nal_hrd=none / filler=0 / ip_ratio=1.40 / pb_ratio=1.30 / aq=1:1.00
Язык : English
Default : Да
Forced : Нет

Аудио #1
Идентификатор : 2
Формат : AC-3
Формат/Информация : Audio Coding 3
Расширение режима : CM (complete main)
Параметр Endianness формата : Big
Идентификатор кодека : A_AC3
Продолжительность : 1 ч. 45 м.
Вид битрейта : Постоянный
Битрейт : 640 Кбит/сек
Каналы : 6 каналов
Расположение каналов : Front: L C R, Side: L R, LFE
Частота : 48,0 КГц
Частота кадров : 31,250 кадров/сек (1536 spf)
Метод сжатия : С потерями
Размер потока : 481 Мбайт (11%)
Заголовок : DUB
Язык : Russian
Default : Да
Forced : Нет

Аудио #2
Идентификатор : 3
Формат : AC-3
Формат/Информация : Audio Coding 3
Расширение режима : CM (complete main)
Параметр Endianness формата : Big
Идентификатор кодека : A_AC3
Продолжительность : 1 ч. 45 м.
Вид битрейта : Постоянный
Битрейт : 640 Кбит/сек
Каналы : 6 каналов
Расположение каналов : Front: L C R, Side: L R, LFE
Частота : 48,0 КГц
Частота кадров : 31,250 кадров/сек (1536 spf)
Метод сжатия : С потерями
Размер потока : 481 Мбайт (11%)
Заголовок : original
Язык : English
Default : Нет
Forced : Нет

Текст #1
Идентификатор : 4
Формат : UTF-8
Идентификатор кодека : S_TEXT/UTF8
Идентификатор кодека/Информация : UTF-8 Plain Text
Продолжительность : 1 ч. 36 м.
Битрейт : 125 бит/сек
Count of elements : 1480
Размер потока : 88,6 Кбайт (0%)
Заголовок : русские
Язык : Russian
Default : Нет
Forced : Нет

Текст #2
Идентификатор : 5
Формат : UTF-8
Идентификатор кодека : S_TEXT/UTF8
Идентификатор кодека/Информация : UTF-8 Plain Text
Продолжительность : 1 ч. 36 м.
Битрейт : 136 бит/сек
Count of elements : 1535
Размер потока : 97,1 Кбайт (0%)
Заголовок : русские (К.Поздняков)
Язык : Russian
Default : Нет
Forced : Нет

Текст #3
Идентификатор : 6
Формат : UTF-8
Идентификатор кодека : S_TEXT/UTF8
Идентификатор кодека/Информация : UTF-8 Plain Text
Продолжительность : 1 ч. 36 м.
Битрейт : 78 бит/сек
Count of elements : 1498
Размер потока : 55,3 Кбайт (0%)
Заголовок : английские
Язык : English
Default : Нет
Forced : Нет

Меню
00:00:00.000 : en:Chapter 01
00:05:04.053 : en:Chapter 02
00:09:59.515 : en:Chapter 03
00:16:54.722 : en:Chapter 04
00:22:25.719 : en:Chapter 05
00:29:28.975 : en:Chapter 06
00:36:20.595 : en:Chapter 07
00:42:22.039 : en:Chapter 08
00:47:57.833 : en:Chapter 09
00:52:36.444 : en:Chapter 10
00:58:05.440 : en:Chapter 11
01:04:42.587 : en:Chapter 12
01:16:01.056 : en:Chapter 13
01:20:44.798 : en:Chapter 14
01:27:36.376 : en:Chapter 15
01:35:07.076 : en:Chapter 16
pb.wtf



Скачать Управление гневом через торрент http://s41.radikal.ru/i093/1612/82/18b299356994.jpg Скачать фильм Управление гневом через торрент бесплантно в хорошем качестве Описание: Скромному клерку отчаянно не везёт. Парня по обвинению в оскорблении бортпроводницы приговаривают к лечению у психиатра. Но верно ... 8.2 10 6
Info! Золотая раздача, скачанное не засчитывается.
Торрент: Зарегистрирован [2016-12-27 05:43] · скачан: 94 раз
Статус: √ проверено
Размер: 4.35 GB
Как cкачать? Как скачать Управление гневом через торрент | qTorrent

% Раздел Тема Автор DL S | L
Фильмы [HD 720p, 1080p] (Хороший звук DUB, MVO) [ 10.04 GB ] Управление гневом / Anger Management [2003 BDRip 1080p by msltel] DUB msltel Скачать
1 | 0

28-11-2019 20:33  

Отключить всю рекламу на сайте

    Дорогой пользователь! Огромная просьба, поблагодарите релизера, оцените раздачу и оставьте свои комментарий, если Вы скачали Управление гневом через торрент бесплатно! Внесите свою лепту в развитие PiratBit!
    Комментировать посты могут только пользователи прошедшие не сложную регистрацию
    Показать сообщения:    

    Управление гневом через торрент
    Скачать бесплатно Управление гневом
    Управление гневом скачать торрент
    Управление гневом смотреть онлайн
    Cкачать фильм Управление гневом бесплатно
    Управление гневом скачать торрент в хорошем качестве
    Управление гневом смотреть онлайн бесплатно в хорошем качестве


    Вы не можете начинать темы
    Вы не можете отвечать на сообщения
    Вы не можете редактировать свои сообщения
    Вы не можете удалять свои сообщения
    Вы не можете голосовать в опросах
    Вы не можете прикреплять файлы к сообщениям
    Вы можете скачивать файлы