Anonymous, добрый день, присоединяйтесь к нам в Telegram!, здесь всегда актуальный адрес сайта, оперативная поддержка и многое другое!

>

5.6

iTunes

7.4

iTunes

5.7

MVO

1

7.7

1 сезон

6.8

iTunes

7.3

1 сезон

13

6.7

1 сезон

8.3

RePack

30

ULTIMATE

pack

9.9

Лицензия

ВАЖНО

ИГРА 18+

pack

7.3

RePack

MK11

7.7

RePack

jed

7.8

RePack

fifa19

8.5

RePack

RDR2

RePack

NEED FOR SPEED™ PAYBACK

4 сезон

9 сезон

Бесстыжие 9 сезон

Все сериалы

все сериалы на PB.wtf

RePack

FAR CRY 5

Anonymous, добрый день, мы катастрофически не успеваем собрать деньги на оплату серверов, помогите нам пожалуйста 5,10,15р., для нас важна любая помощь . В качестве благодарности мы отключим Вам всю рекламу на сайте (укажите свой ник в строку Ваше имя)!

×
  
Magnet ссылка

Универ. Новая общага (Новогодняя серия) (Константин Смирнов, Максим Зыков) [2016, Россия, комедия, SATRip) pb.wtf

Универ. Новая общага через торрент pb.wtf

Раздают: 1 [ 0 KB/s ]
Размер: 353 MB | Добавлен: 4 года 9 мес. назад | Торрент скачан:411 раз
Смотреть онлайн Универ. Новая общага | Скачать    Ребята, помогите собрать деньги на оплату серверов!!!

27-12-2016 11:36 Универ. Новая общага Скачать торрент  


Универ. Новая общага



  • Год выпуска: 2016
  • Страна: Россия
  • Жанр: комедия
  • Продолжительность: 00:23:54 (Серия)
  • Перевод: Не требуется
  • Режиссер: Константин Смирнов, Максим Зыков
  • В ролях:

    Виталий Гогунский (Кузя), Арарат Кещян (Майкл), Станислав Ярушин (Антон), Анна Кузина (Яна Семакина), Настасья Самбурская (Кристина Соколовская), Анна Хилькевич (Маша Белова), Анастасия Иванова (Юля Семакина, младшая сестра Яны), Владимир Фекленко (Олег Смирнов), Елена Валюшкина (Зоя Михайловна), Андрей Лебедев (Лев Мартынов, олигарх), Сергей Пиоро (Павел Владимирович), Роман Куперман (Федоренко)

  • Описание:
    В новом сезоне темой новых серий станет переезд Антона и Кристины в свое собственное любовное гнездышко. Вот только окажется, что свить его не так-то просто, даже если все расходы берет на себя папа-олигарх Лев Андреич. Майкл, как ни странно, продолжает встречаться с Варей. Все бы ничего, но теперь, когда Зуев знает об их отношениях, Майклу приходится общаться с начальником не только по рабочим вопросам, но и по домашним. Как бы ни старались Маша с Валей жить спокойной студенческой жизнью, радуясь своему странному союзу, – ничего у них не выходит. Маша постоянно переживает за любимого и всячески пытается ему помочь. Яна Семакина вместе с Иванычем все сбережения будут вкладывать в свою «ласточку». Прекрасное ведерко на колесиках, которое работает по схеме 5-1: пять часов чинишь, час катаешься.
  • Рейтинг:



  • Качество: SATRip
  • Формат: :AVI
  • Видео кодек: XviD
  • Аудио кодек: MP3
  • Видео: 1800 Кбит/сек, 720*400 (16:9), в 25,000 кадров/сек, MPEG-4 Visual (XviD)
  • Аудио: 192 Кбит/сек, 48,0 КГц, 2 канала, MPEG Audio (MP3)



  • Общее
    Полное имя : H:\Univer.novaja.obshhaga.Novogodnjaja.SATRip.avi
    Формат : AVI
    Формат/Информация : Audio Video Interleave
    Размер файла : 353 Мбайт
    Продолжительность : 24 м.
    Общий поток : 2004 Кбит/сек
    Программа кодирования : VirtualDubMod 1.5.10.3 (build 2550/release)
    Библиотека кодирования : VirtualDubMod build 2550/release

    Видео
    Идентификатор : 0
    Формат : MPEG-4 Visual
    Профиль формата : Advanced Simple@L5
    Параметр BVOP формата : 1
    Параметр QPel формата : Нет
    Параметр GMC формата : Без точки перехода
    Параметр матрицы формата : Default (H.263)
    Идентификатор кодека : XVID
    Идентификатор кодека/Подсказка : XviD
    Продолжительность : 24 м.
    Битрейт : 1800 Кбит/сек
    Ширина : 720 пикселей
    Высота : 400 пикселей
    Соотношение сторон : 16:9
    Частота кадров : 25,000 кадров/сек
    Цветовое пространство : YUV
    Субдискретизация насыщенности : 4:2:0
    Битовая глубина : 8 бит
    Тип развёртки : Прогрессивная
    Метод сжатия : С потерями
    Бит/(Пиксели*Кадры) : 0.250
    Размер потока : 317 Мбайт (90%)
    Библиотека кодирования : XviD 67

    Аудио
    Идентификатор : 1
    Формат : MPEG Audio
    Версия формата : Version 1
    Профиль формата : Layer 3
    Режим : Joint stereo
    Расширение режима : MS Stereo
    Идентификатор кодека : 55
    Идентификатор кодека/Подсказка : MP3
    Продолжительность : 24 м.
    Вид битрейта : Постоянный
    Битрейт : 192 Кбит/сек
    Каналы : 2 канала
    Частота : 48,0 КГц
    Метод сжатия : С потерями
    Размер потока : 33,8 Мбайт (10%)
    Выравнивание : Соединение по промежуткам
    Продолжительность промежутка : 24 мс. (0,60 видеокадр)
    Время предзагрузки промежутка : 504 мс.
    Библиотека кодирования : LAME3.99.5t˜V2$J%©S

    Скриншоты:
    скриншот   скриншот   скриншот   скриншот   скриншот   скриншот   скриншот  
    скриншот  


    pb.wtf



  • Скачать Универ. Новая общага через торрент https://pic1.kartinco.top/images/10/et5wl.jpg Скачать, смотреть онлайн Универ. Новая общага бесплантно в хорошем качестве Описание: В новом сезоне темой новых серий станет переезд Антона и Кристины в свое собственное любовное гнездышко. Вот только окажется, что ... 9.9 10 7
    Торрент: Зарегистрирован [2016-12-27 11:36] · скачан: 411 раз
    Статус: √ проверено
    Размер: 353 MB
    Как cкачать? Как скачать Универ. Новая общага через торрент | UTorrent

    % Раздел Тема Автор DL S | L
    TNT serials [ 90.02 GB ] Универ. Новая общага / Сезоны: 1-15 / Серии: 1-295 из 295 [2011-2018 Ситком SATRip] bober100 Скачать
    2 | 0
    TNT serials [ 5.91 GB ] Универ. Новая общага: Финальный сезон / Сезон: 15 / Серии: 1-18 из 18 + Фильм о Фильме [2018 Ситком SATRip] bober100 Скачать
    1 | 0
    TNT serials [ 6.33 GB ] Универ. Новая общага: Финальный сезон / Сезон: 15 / Серии: 1-18 из 18 + Фильм о фильме [2018 Ситком WEB-DLRip] bober100 Скачать
    1 | 0
    TNT serials [ 6.92 GB ] Универ. Новая общага: Финальный сезон / Сезон: 15 / Серии: 1-18 из 18 + Фильм о Фильме [2018 Ситком HDTVRip-AVC] bober100 Скачать
    1 | 0
    TNT serials [ 12.31 GB ] Универ. Новая общага: Финальный сезон / Сезон: 15 / Серии: 1-18 из 18 + Фильм о фильме [2018 Ситком WEB-DL 720p] bober100 Скачать
    1 | 0
    TNT serials [ 13.39 GB ] Универ. Новая общага: Финальный сезон / Сезон: 15 / Серии: 1-18 из 18 + Фильм о фильме [2018 Ситком HDTVRip 720p] bober100 Скачать
    1 | 0
    TNT serials [ 26.02 GB ] Универ. Новая общага: Финальный сезон / Сезон: 15 / Серии: 1-18 из 18 + Фильм о фильме [2018 Ситком HDTV 1080i] bober100 Скачать
    1 | 0

    28-11-2019 20:33  

    Отключить всю рекламу на сайте

    27-12-2016 11:49 Универ. Новая общага Скачать торрент  

    спасибоpb.wtf



    27-12-2016 11:52 Универ. Новая общага Скачать торрент  

    BlackFenix писал(а):

    спасибо

    pb.wtf



    27-12-2016 14:54 Универ. Новая общага Скачать торрент  

    Это новый сезон что ли?pb.wtf



    27-12-2016 23:32 Универ. Новая общага Скачать торрент  

    LokiStar писал(а):

    Это новый сезон что ли?

    Просто серия pb.wtf



      Дорогой пользователь! Огромная просьба, поблагодарите релизера, оцените раздачу и оставьте свои комментарий, если Вы скачали Универ. Новая общага через торрент бесплатно!
      Комментировать посты могут только пользователи прошедшие не сложную регистрацию
      Показать сообщения:    

      Универ. Новая общага через торрент
      Скачать бесплатно Универ. Новая общага
      Универ. Новая общага скачать торрент
      Универ. Новая общага смотреть онлайн
      Cкачать фильм Универ. Новая общага бесплатно
      Универ. Новая общага скачать торрент в хорошем качестве
      Универ. Новая общага смотреть онлайн бесплатно в хорошем качестве


      Вы не можете начинать темы
      Вы не можете отвечать на сообщения
      Вы не можете редактировать свои сообщения
      Вы не можете удалять свои сообщения
      Вы не можете голосовать в опросах
      Вы не можете прикреплять файлы к сообщениям
      Вы можете скачивать файлы