новый адрес
Ссылка на приватное зеркало всего за 1$. Внимание количество ограничено!!!

iTunes

1+1

iTunes

мы

iTunes

1

iTunes

Чернобыль

iTunes

Ральф против интернета

Лицензия

ПШазам

Лицензия

Оно 2

Лицензия

30
pack

Вам бонус

ВАЖНО

!!Акция!!

Alien_RageХит недели

RePack

Resident Evil 21

ИГРА 18+

pack

RePack

jed

!!Акция!!

Alien_Rage

RePack

fifa19

RePack

Assassins Creed: Odyssey

RePack

NEED FOR SPEED™ PAYBACK

3 сезон

9 сезон

Бесстыжие 9 сезон

Все сериалы

все сериалы на PB.wtf

RePack

FAR CRY 5
Ребята, катастрофически не хватает 1900р. для оплаты серверов за Октябрь (всвязи с блокировками трафик упал в 3 раза), 1-2р., выручайте.
  

Кровавый рассвет (Алексей Швачко) [1956, СССР, драма, DVDRip от AVP Studio] pb.wtf

Кровавый рассвет через торрент pb.wtf

Размер: 745 MB | Добавлен: 2 года 10 мес. назад | Торрент скачан:8 раз
Скачать  

27-12-2016 13:18 Кровавый рассвет Скачать торрент  

Кровавый рассвет
Страна: СССР
Производство: Киевская к/ст

Жанр: драма
Год выпуска: 1956
Продолжительность: 01:19:45

Перевод: Не требуется
Cубтитры: нет
Оригинальная аудиодорожка: русский

Режиссер: Алексей Швачко

В ролях:
Марьян Крушельницкий, Лилия Гриценко, Ада Роговцева, Юлиан Панич, Валентин Черняк, Николай Пишванов, Александр Вертинский, Виктор Добровольский, Пётр Михневич, Фёдор Радчук, Виктор Цымбалист, Василий Яременко...
Полный список актёров

Описание:
1905 год. Рабочий-революционер Марко Гуща возвращается в родное село. Радостно встречают Mapко старые друзья. Давно поджидала его и девушка Гафийка — дочь бедняков Андрея и Маланки. Трудна жизнь крестьян украинского села, но не покидает их мечта о лучшем будущем. Некоторые надеются, что помещики сами отдадут землю крестьянам. Иначе думает батрак Гудзь: нужно сначала расправиться с помещиками, и тогда крестьяне станут полноправными хозяевами земли. Марко возглавляет борьбу односельчан, но его арестовывают. Агитационную работу продолжает Гафийка. Вскоре Марко снова оказывается на свободе. Под его руководством борьба крестьян усиливается…

Источник: DVD5 R5
Качество видео: DVDRip
Формат видео: AVI

Видео: 640x480 (4:3), 25 fps, XviD ~ 1169 kbps avg, 0.152 bit/pixel
Аудио: 48 kHz, MP3 2.0, 128 kbps

Раздача от:
Общее
Полное имя : Krovavyy.rassvet.DVDRip-745_[New-team]_by_AVP_Studio.avi
Формат : AVI
Формат/Информация : Audio Video Interleave
Размер файла : 745 Мбайт
Продолжительность : 1 ч. 19 м.
Общий поток : 1306 Кбит/сек
Программа кодирования : VirtualDubMod 1.5.10.3 | www.virtualdub-fr.org || (build 2550/release)
Библиотека кодирования : VirtualDubMod build 2550/release

Видео
Идентификатор : 0
Формат : MPEG-4 Visual
Профиль формата : Advanced Simple@L5
Параметр BVOP формата : 1
Параметр QPel формата : Нет
Параметр GMC формата : Без точки перехода
Параметр матрицы формата : Выборочная
Идентификатор кодека : XVID
Идентификатор кодека/Подсказка : XviD
Продолжительность : 1 ч. 19 м.
Битрейт : 1169 Кбит/сек
Ширина : 640 пикселей
Высота : 480 пикселей
Соотношение сторон : 4:3
Частота кадров : 25,000 кадров/сек
Цветовое пространство : YUV
Субдискретизация насыщенности : 4:2:0
Битовая глубина : 8 бит
Тип развёртки : Прогрессивная
Метод сжатия : С потерями
Бит/(Пиксели*Кадры) : 0.152
Размер потока : 667 Мбайт (89%)
Библиотека кодирования : XviD 73

Аудио
Идентификатор : 1
Формат : MPEG Audio
Версия формата : Version 1
Профиль формата : Layer 3
Идентификатор кодека : 55
Идентификатор кодека/Подсказка : MP3
Продолжительность : 1 ч. 19 м.
Вид битрейта : Постоянный
Битрейт : 128 Кбит/сек
Каналы : 2 канала
Частота : 48,0 КГц
Метод сжатия : С потерями
Размер потока : 73,0 Мбайт (10%)
Выравнивание : Соединение по промежуткам
Продолжительность промежутка : 40 мс. (1,00 видеокадр)
Время предзагрузки промежутка : 504 мс.
Библиотека кодирования : LAME3.99r
Настройки программы : -m s -V 4 -q 2 -lowpass 17 -b 128
pb.wtf



Скачать Кровавый рассвет через торрент http://s019.radikal.ru/i644/1612/3e/11dec59a6355.png Скачать фильм Кровавый рассвет через торрент бесплантно в хорошем качестве Описание:1905 год. Рабочий-революционер Марко Гуща возвращается в родное село. Радостно встречают Mapко старые друзья. Давно поджидала его ... 10 10 1
Info! Золотая раздача, скачанное не засчитывается.
Торрент: Зарегистрирован [2016-12-27 13:18] · скачан: 8 раз
Статус: √ проверено
Размер: 745 MB
Как cкачать? Как скачать Кровавый рассвет через торрент | qTorrent

% Раздел Тема Автор DL S | L
Кино СССР [ 1.09 GB ] Кровавый рассвет [1956 СССР DVDRip-AVC от AVP Studio] AVP Studio Скачать
1 | 0
Фильмы до 2000 г. [ 740 MB ] От заката до рассвета 2 - Кровавые деньги из Техаса / From Dusk Till Dawn 2 - Texas Blood Money [1999 DVDRip] dino crisis Скачать
1 | 0


>> Переходим по ссылке <<
Автоматически подгузится скрипт который настроит ваш браузер на выигрыш!!
После настройки браузера вероятность выигрыша увеличется в 4.1-4,6 раза.
В течение 6 секунд вам откроется настроенный интерфейс казино, с повышенной вероятностью выигрыша.






Отзывы и комментарии о схеме читаем и пишем здесь: ---> Отзывы и комментарии о схеме

Новые благодарочки в телеграм довольных пользователей:
скриншот   скриншот   скриншот   скриншот   скриншот
    Дорогой пользователь! Огромная просьба, поблагодарите релизера, оцените раздачу и оставьте свои комментарий, если Вы скачали Кровавый рассвет через торрент бесплатно! Внесите свою лепту в развитие PiratBit!
    Комментировать посты могут только пользователи прошедшие не сложную регистрацию
    Показать сообщения:    

    Кровавый рассвет через торрент
    Скачать бесплатно Кровавый рассвет
    Кровавый рассвет скачать торрент
    Кровавый рассвет смотреть онлайн
    Cкачать фильм Кровавый рассвет бесплатно
    Кровавый рассвет скачать торрент в хорошем качестве
    Кровавый рассвет смотреть онлайн бесплатно в хорошем качестве


    Вы не можете начинать темы
    Вы не можете отвечать на сообщения
    Вы не можете редактировать свои сообщения
    Вы не можете удалять свои сообщения
    Вы не можете голосовать в опросах
    Вы не можете прикреплять файлы к сообщениям
    Вы можете скачивать файлы