Ссылка на приватное зеркало всего за 1$. Внимание количество ограничено!!!

iTunes

iTunes

iTunes

1

iTunes

iTunes

iTunes

iTunes

iTunes

30
pack

$ от Little Big

ВАЖНО

!!Акция!!

Alien_RageХит недели

RePack

Resident Evil 21

ИГРА 18+

pack

RePack

jed

!!Акция!!

Alien_Rage

RePack

fifa19

RePack

Assassins Creed: Odyssey

RePack

NEED FOR SPEED™ PAYBACK

4 сезон

9 сезон

Бесстыжие 9 сезон

Все сериалы

все сериалы на PB.wtf

RePack

FAR CRY 5
  

Спектральный / Спектральный анализ / Spectral (Ник Матьё) [2016, фантастика, боевик, триллер, WEBRip 1080p] MVO [@MUZOBOZ@] pb.wtf

Спектральный через торрент pb.wtf

Раздают: 2 [ 919 KB/s ]
Размер: 11.06 GB | Добавлен: 3 года 6 мес. назад | Торрент скачан:552 раза
Скачать  

27-12-2016 17:55 Спектральный Скачать торрент  

Спектральный / Спектральный анализ / Spectral

Год выпуска: 2016
Страна: США
Жанр: фантастика, боевик, триллер

Продолжительность: 01:48:04
Перевод: Любительский (многоголосый) [@MUZOBOZ@]
Примечание: Релиз без рекламы
Субтитры: английские
Режиссер: Ник Матьё
В ролях:

Джеймс Бэдж Дэйл (Clyne), Эмили Мортимер (Fran Madison), Брюс Гринвуд (General Orland), Макс Мартини (Capt. Sessions), Кори Хардрикт (Alessio), Клейн Кроуфорд (Sgt. Toll), Гонсало Менендес (Captain Marco Cabrera), Урсула Паркер (Sari), Aaron Serban (Bogdan), Стивен Рут (Dr. Mindala), Джимми Экинбола (Sgt. Steve McFadden), Цогбаатар Бацориг (Weapons Engineer)
Описание:
В Молдавии уже не первый год идёт война. Последнее время в зоне боевых действий стали появляться невидимые невооружённым глазом существа, которые мгновенно убивают вооружённых до зубов обученных профессионалов. Доктор Клайн принимал участие в разработке новейшего оружия, бессильного против этих существ, и теперь ему предстоит выяснить, что они такое и откуда взялись.
Рейтинг:

MPAA: PG-13 - Детям до 13 лет просмотр не желателен
Качество: WEBRip 1080p
Формат: MKV
Видео: AVC, 1920x800 (2.40:1), 13945 kbps, 23,976 fps, 0,379 bpp
Аудио №1: русский / AC3 / 5.1 / 48 kHz / 384 kbps / |MVO|
Аудио №2: английский / AC3 / 5.1 / 48 kHz / 384 kbps /

General
Unique ID : 233155726905379450621039385559953166435 (0xAF6828DC8B6E35A7B6E9EAA0AC1DD063)
Complete name : E:\SpecTraLL.2O16.P.5.1.WEB-DL.1O8Op_KOSHARA.mkv
Format : Matroska
Format version : Version 2
File size : 11.1 GiB
Duration : 1 h 48 min
Overall bit rate : 14.7 Mb/s
Encoded date : UTC 2016-12-27 14:20:12
Writing application : mkvmerge v8.3.0 ('Over the Horizon') 64bit
Writing library : libebml v1.3.1 + libmatroska v1.4.2

Video
ID : 1
Format : AVC
Format/Info : Advanced Video Codec
Format profile : High@L4.1
Format settings, CABAC : Yes
Format settings, ReFrames : 5 frames
Codec ID : V_MPEG4/ISO/AVC
Duration : 1 h 47 min
Bit rate : 13.9 Mb/s
Width : 1 920 pixels
Height : 800 pixels
Display aspect ratio : 2.40:1
Frame rate mode : Constant
Frame rate : 23.976 (24000/1001) FPS
Color space : YUV
Chroma subsampling : 4:2:0
Bit depth : 8 bits
Scan type : Progressive
Bits/(Pixel*Frame) : 0.379
Stream size : 10.5 GiB (95%)
Default : No
Forced : No
Color range : Limited
Matrix coefficients : BT.709

Audio #1
ID : 2
Format : AC-3
Format/Info : Audio Coding 3
Mode extension : CM (complete main)
Format settings, Endianness : Big
Codec ID : A_AC3
Duration : 1 h 48 min
Bit rate mode : Constant
Bit rate : 384 kb/s
Channel(s) : 6 channels
Channel positions : Front: L C R, Side: L R, LFE
Sampling rate : 48.0 kHz
Frame rate : 31.250 FPS (1536 spf)
Compression mode : Lossy
Stream size : 297 MiB (3%)
Language : Russian
Default : Yes
Forced : Yes

Audio #2
ID : 3
Format : AC-3
Format/Info : Audio Coding 3
Mode extension : CM (complete main)
Format settings, Endianness : Big
Codec ID : A_AC3
Duration : 1 h 48 min
Bit rate mode : Constant
Bit rate : 384 kb/s
Channel(s) : 6 channels
Channel positions : Front: L C R, Side: L R, LFE
Sampling rate : 48.0 kHz
Frame rate : 31.250 FPS (1536 spf)
Compression mode : Lossy
Stream size : 297 MiB (3%)
Language : English
Default : No
Forced : No

Text
ID : 4
Format : UTF-8
Codec ID : S_TEXT/UTF8
Codec ID/Info : UTF-8 Plain Text
Duration : 1 h 47 min
Bit rate : 56 b/s
Count of elements : 1245
Stream size : 44.0 KiB (0%)
Language : English
Default : Yes
Forced : No
pb.wtf



Скачать Спектральный через торрент http://i4.imageban.ru/out/2016/12/27/5ca4c6fad2b092619610d6461e3bc527.jpg Скачать фильм Спектральный через торрент бесплантно в хорошем качестве Описание: В Молдавии уже не первый год идёт война. Последнее время в зоне боевых действий стали появляться невидимые невооружённым глазом ... 10 10 12
Info! Серебряная раздача, засчитывается только 50% скачанного.
Торрент: Зарегистрирован [2016-12-27 17:55] · скачан: 552 раз
Статус: T временная
Размер: 11.06 GB
Как cкачать? Как скачать Спектральный через торрент | qTorrent

% Раздел Тема Автор DL S | L
T Релизы по Парсеру [Игры, Сериалы и Фильмы и другое...] [ 1.46 GB ] Спектральный / Спектральный анализ / Spectral [2016 WEBRip] MVO [@MUZOBOZ@] Sherif Скачать
3 | 0
T Фильмы 2016 [DVDrip, WEB-DLRip, HDrip] (DUB, MVO) [ 2.05 GB ] Спектральный / Спектральный анализ / Spectral [2016 WEBRip] MVO [@MUZOBOZ@] -Lexx- Скачать
2 | 0
T Фильмы (WEB-DL 720p, 1080p) [ 5.09 GB ] Спектральный / Спектральный анализ / Spectral [2016 WEBRip 720р] MVO [@MUZOBOZ@] -Lexx- Скачать
3 | 0
T Фильмы 2016 [DVDrip, WEB-DLRip, HDrip] (DUB, MVO) [ 747 MB ] Спектральный анализ / Spectral [2016 WEBRip by _Один_777] MVO Один 777 Скачать
1 | 0

28-11-2019 20:33  

Отключить всю рекламу на сайте

27-12-2016 19:18 Спектральный Скачать торрент  

Глянуpb.wtf



28-12-2016 03:35 Спектральный Скачать торрент  

и как?pb.wtf



29-12-2016 22:26 Спектральный Скачать торрент  

фильм понравился... классныйpb.wtf



30-12-2016 10:34 Спектральный Скачать торрент  

Кино годное! pb.wtf



21-03-2017 11:11 Спектральный Скачать торрент  

Как перевод, смотрибельно? Или ничего не понятно, как в большинстве любительских переводов?pb.wtf



    Дорогой пользователь! Огромная просьба, поблагодарите релизера, оцените раздачу и оставьте свои комментарий, если Вы скачали Спектральный через торрент бесплатно! Внесите свою лепту в развитие PiratBit!
    Комментировать посты могут только пользователи прошедшие не сложную регистрацию
    Показать сообщения:    

    Спектральный через торрент
    Скачать бесплатно Спектральный
    Спектральный скачать торрент
    Спектральный смотреть онлайн
    Cкачать фильм Спектральный бесплатно
    Спектральный скачать торрент в хорошем качестве
    Спектральный смотреть онлайн бесплатно в хорошем качестве


    Вы не можете начинать темы
    Вы не можете отвечать на сообщения
    Вы не можете редактировать свои сообщения
    Вы не можете удалять свои сообщения
    Вы не можете голосовать в опросах
    Вы не можете прикреплять файлы к сообщениям
    Вы можете скачивать файлы