Ссылка на приватное зеркало нашего сайта всего за 1$. Внимание количество ограничено!!!

2 сезон

iTunes

1 сезон

1

2 сезон

2 сезон

iTunes

1 сезон

RePack

30

Ultimate

ВАЖНО

ИГРА 18+

pack

RePack

MK11
pack

Забери бонус

RePack

jed

!!Акция!!

Alien_Rage

RePack

fifa19

RePack

Assassins Creed: Odyssey

RePack

NEED FOR SPEED™ PAYBACK

4 сезон

9 сезон

Бесстыжие 9 сезон

Все сериалы

все сериалы на PB.wtf

RePack

FAR CRY 5
  

Tygers of Pan Tang - Tygers of Pan Tang - 2016/ FLAC/ image +.cue/ lossless/ Heavy Metal pb.wtf

Tygers of Pan Tang - Tygers of Pan Tang - 2016 через торрент pb.wtf

Размер: 348 MB | Добавлен: 3 года 10 мес. назад | Торрент скачан:5 раз
Скачать  

27-12-2016 18:15 Tygers of Pan Tang - Tygers of Pan Tang - 2016 Скачать торрент  


Tygers of Pan Tang - Tygers of Pan Tang


Год издания: 2016
Страна: UK
Жанр: Heavy Metal
Продолжительность: 00:44:56
Лейбл издания: Mighty Music
Страна-выпуска диска: EU
Номер по каталогу: PMZ200CD
Формат: FLAC
Битрейт аудио: Lossless
Тип рипа: image +.cue
Наличие сканов в содержимом раздачи: да

Tygers of Pan Tang — британская хэви-метал-группа, сформированная в 1978 году в Уитли Бей, пригороде Ньюкасла.


01.Only the Brave(5:04)
02.Dust(4:29)
03.Glad Rags(4:10)
04.Never Give In(3:59)
05.The Reason Why(4:37)
06.Do It Again(3:20)
07.I Got the Music in Me(3:40)
08.Praying for a Miracle(4:55)
09.Blood Red Sky(5:01)
10.Angel in Disguise(1:53)
11.The Devil You Know(3:51)

Exact Audio Copy V1.1 from 23. June 2015

EAC extraction logfile from 6. November 2016, 7:15

Tygers of Pan Tang / Tygers of Pan Tang

Used drive : PIONEER BD-RW BDR-209D Adapter: 0 ID: 5

Read mode : Secure
Utilize accurate stream : Yes
Defeat audio cache : Yes
Make use of C2 pointers : No

Read offset correction : 667
Overread into Lead-In and Lead-Out : No
Fill up missing offset samples with silence : Yes
Delete leading and trailing silent blocks : No
Null samples used in CRC calculations : Yes
Used interface : Installed external ASPI interface

Used output format : User Defined Encoder
Selected bitrate : 768 kBit/s
Quality : High
Add ID3 tag : No
Command line compressor : C:\Program Files (x86)\Exact Audio Copy\FLAC\FLAC.EXE
Additional command line options : -6 -V -T "ARTIST=%artist%" -T "TITLE=%title%" -T "ALBUM=%albumtitle%" -T "DATE=%year%" -T "TRACKNUMBER=%tracknr%" -T "GENRE=%genre%" -T "COMMENT=%comment%" -T "BAND=%albuminterpret%" -T "ALBUMARTIST=%albuminterpret%" -T "COMPOSER=%composer%" %haslyrics%--tag-from-file=LYRICS="%lyricsfile%"%haslyrics% -T "DISCNUMBER=%cdnumber%" -T "TOTALDISCS=%totalcds%" -T "TOTALTRACKS=%numtracks%" %hascover%--picture="%coverfile%"%hascover% %source% -o %dest%

TOC of the extracted CD

Track | Start | Length | Start sector | End sector
---------------------------------------------------------
1 | 0:00.00 | 5:03.41 | 0 | 22765
2 | 5:03.41 | 4:28.40 | 22766 | 42905
3 | 9:32.06 | 4:09.56 | 42906 | 61636
4 | 13:41.62 | 3:58.47 | 61637 | 79533
5 | 17:40.34 | 4:37.02 | 79534 | 100310
6 | 22:17.36 | 3:20.22 | 100311 | 115332
7 | 25:37.58 | 3:40.25 | 115333 | 131857
8 | 29:18.08 | 4:54.42 | 131858 | 153949
9 | 34:12.50 | 5:00.41 | 153950 | 176490
10 | 39:13.16 | 1:52.49 | 176491 | 184939
11 | 41:05.65 | 3:50.41 | 184940 | 202230

Range status and errors

Selected range

Filename E:\MUSIC\Tygers of Pan Tang - Tygers of Pan Tang.wav

Peak level 100.0 %
Extraction speed 7.7 X
Range quality 100.0 %
Test CRC 0E69183A
Copy CRC 5FFBCA29
Copy OK

No errors occurred

AccurateRip summary

Track 1 not present in database
Track 2 not present in database
Track 3 not present in database
Track 4 not present in database
Track 5 not present in database
Track 6 not present in database
Track 7 not present in database
Track 8 not present in database
Track 9 not present in database
Track 10 not present in database
Track 11 not present in database

None of the tracks are present in the AccurateRip database

End of status report
REM GENRE "Hard Rock"
REM DATE 2016
REM DISCID 8D0A880B
REM COMMENT "ExactAudioCopy v1.1"
PERFORMER "Tygers of Pan Tang"
TITLE "Tygers of Pan Tang"
FILE "Tygers of Pan Tang - Tygers of Pan Tang.flac" WAVE
TRACK 01 AUDIO
TITLE "Only the Brave"
PERFORMER "Tygers of Pan Tang"
INDEX 01 00:00:00
TRACK 02 AUDIO
TITLE "Dust"
PERFORMER "Tygers of Pan Tang"
INDEX 01 05:03:41
TRACK 03 AUDIO
TITLE "Glad Rags"
PERFORMER "Tygers of Pan Tang"
INDEX 01 09:32:06
TRACK 04 AUDIO
TITLE "Never Give In"
PERFORMER "Tygers of Pan Tang"
INDEX 01 13:41:62
TRACK 05 AUDIO
TITLE "The Reason Why"
PERFORMER "Tygers of Pan Tang"
INDEX 01 17:40:34
TRACK 06 AUDIO
TITLE "Do It Again"
PERFORMER "Tygers of Pan Tang"
INDEX 01 22:17:36
TRACK 07 AUDIO
TITLE "I Got the Music in Me"
PERFORMER "Tygers of Pan Tang"
INDEX 01 25:37:58
TRACK 08 AUDIO
TITLE "Praying for a Miracle"
PERFORMER "Tygers of Pan Tang"
INDEX 01 29:18:08
TRACK 09 AUDIO
TITLE "Blood Red Sky"
PERFORMER "Tygers of Pan Tang"
INDEX 01 34:12:50
TRACK 10 AUDIO
TITLE "Angel in Disguise"
PERFORMER "Tygers of Pan Tang"
INDEX 01 39:13:16
TRACK 11 AUDIO
TITLE "The Devil You Know"
PERFORMER "Tygers of Pan Tang"
INDEX 01 41:05:65



pb.wtf



Скачать Tygers of Pan Tang - Tygers of Pan Tang - 2016 через торрент http://i87.fastpic.ru/big/2016/1227/ed/42ad8138eed8d227ab7e642a813fb1ed.png Скачать фильм Tygers of Pan Tang - Tygers of Pan Tang - 2016через торрент бесплантно в хорошем качестве Трэклист Only the Brave(5:04)Dust(4:29)Glad Rags(4:10)Never Give In(3:59)The Reason Why(4:37)Do It Again(3:20)I Got ... 10 10 1
Торрент: Зарегистрирован [2016-12-27 18:16] · скачан: 5 раз
Статус: √ проверено
Размер: 348 MB
Как cкачать? Как скачать Tygers of Pan Tang - Tygers of Pan Tang - 2016 через торрент | qTorrent

28-11-2019 20:33  

Отключить всю рекламу на сайте

    Дорогой пользователь! Огромная просьба, поблагодарите релизера, оцените раздачу и оставьте свои комментарий, если Вы скачали Tygers of Pan Tang - Tygers of Pan Tang - 2016 через торрент бесплатно! Внесите свою лепту в развитие PiratBit!
    Комментировать посты могут только пользователи прошедшие не сложную регистрацию
    Показать сообщения:    

    Tygers of Pan Tang - Tygers of Pan Tang - 2016 через торрент
    Скачать бесплатно Tygers of Pan Tang - Tygers of Pan Tang - 2016
    Tygers of Pan Tang - Tygers of Pan Tang - 2016 скачать торрент
    Tygers of Pan Tang - Tygers of Pan Tang - 2016 смотреть онлайн
    Cкачать фильм Tygers of Pan Tang - Tygers of Pan Tang - 2016 бесплатно
    Tygers of Pan Tang - Tygers of Pan Tang - 2016 скачать торрент в хорошем качестве
    Tygers of Pan Tang - Tygers of Pan Tang - 2016 смотреть онлайн бесплатно в хорошем качестве


    Вы не можете начинать темы
    Вы не можете отвечать на сообщения
    Вы не можете редактировать свои сообщения
    Вы не можете удалять свои сообщения
    Вы не можете голосовать в опросах
    Вы не можете прикреплять файлы к сообщениям
    Вы можете скачивать файлы