Ссылка на приватное зеркало нашего сайта всего за 1$. Внимание количество ограничено!!!

2 сезон

iTunes

1 сезон

1

iTunes

iTunes

iTunes

1 сезон

RePack

30

ИГРА 18+

pack

ВАЖНО

!!Акция!!

Alien_RageХит недели

RePack

MK11
pack

Забери бонус

RePack

jed

!!Акция!!

Alien_Rage

RePack

fifa19

RePack

Assassins Creed: Odyssey

RePack

NEED FOR SPEED™ PAYBACK

4 сезон

9 сезон

Бесстыжие 9 сезон

Все сериалы

все сериалы на PB.wtf

RePack

FAR CRY 5
  

Расплата / The Accountant (Гэвин О’Коннор ) [2016, боевик, триллер, драма, BDRip 1080p] Дубляж - [Лицензия / iTunes] pb.wtf

Расплата через торрент pb.wtf

Раздают: 1 [ 0 KB/s ]
Размер: 9.85 GB | Добавлен: 3 года 9 мес. назад | Торрент скачан:2019 раз
Скачать  

28-12-2016 05:57 Расплата Скачать торрент  

РасплатаThe Accountant«Рассчитайте свой выбор» Год выпуска: 2016
Страна: США
Жанр: боевик, триллер, драма, криминал
Продолжительность: 02:07:54
Перевод: Дубляж - [Лицензия / iTunes]
Субтитры: русские (Forced), русские (Full), английские (Full), английские (SDH)
Режиссер: Гэвин О’Коннор
В ролях:
Бен Аффлек (Christian Wolff), Анна Кендрик (Dana Cummings), Дж.К. Симмонс (Ray King), Джон Бернтал (Brax), Джеффри Тэмбор (Francis Silverberg), Синтия Аддай-Робинсон (Marybeth Medina), Джон Литгоу (Lamar Black), Джин Смарт (Rita Blackburn), Энди Умбергер (Ed Chilton), Элисон Райт (Justine), Джейсон Дэвис (Neurologist), Роберт С. Тревилер (Young Chris's Father)
Описание:
Лента расскажет историю математического гения Кристиана Вульфа, который подрабатывает аудитором для самых опасных преступных организаций. Когда ему на хвост садится отдел по борьбе с преступностью Министерства финансов во главе с Рэем Кингом, Кристиан решает найти себе законопослушного клиента и проводит аудит в компании по производству новейшей робототехники, где сотрудница финансового отдела обнаружила «нестыковочку» в миллионы долларов. Но стоит Кристиану взяться за счета и выйти на след, как в деле начинают появляться жертвы.
Рейтинг:

MPAA: R - Лицам до 17 лет обязательно присутствие взрослого
Качество: BDRip 1080p
Формат: MKV
Видео: AVC, 1920x804 (2.40:1), 10001 kbps, 23,976 fps, 0,270 bpp
Аудио №1: русский / AC3 / 5.1 / 48 kHz / 384 kbps / ||
Аудио №2: английский / AC3 / 5.1 / 48 kHz / 640 kbps /
Навигация по главам: есть

Релиз от: Автор релиза:
General
Unique ID : 188133782838137721770233077592511497970 (0x8D893FA3B7B10BCEA57F5187772846F2)
Complete name : The.Accountant.2016.D.BDRip.1080p.ExKinoRay.mkv
Format : Matroska
Format version : Version 4 / Version 2
File size : 9.85 GiB
Duration : 2 h 7 min
Overall bit rate : 11.0 Mb/s
Movie name : ***селезень*** The.Accountant.2016
Encoded date : UTC 2016-12-27 22:56:12
Writing application : mkvmerge v8.3.0 ('Over the Horizon') 64bit
Writing library : libebml v1.3.1 + libmatroska v1.4.2

Video
ID : 1
Format : AVC
Format/Info : Advanced Video Codec
Format profile : High@L4.1
Format settings, CABAC : Yes
Format settings, ReFrames : 5 frames
Codec ID : V_MPEG4/ISO/AVC
Duration : 2 h 7 min
Bit rate : 10.0 Mb/s
Width : 1 920 pixels
Height : 804 pixels
Display aspect ratio : 2.40:1
Frame rate mode : Constant
Frame rate : 23.976 (24000/1001) FPS
Color space : YUV
Chroma subsampling : 4:2:0
Bit depth : 8 bits
Scan type : Progressive
Bits/(Pixel*Frame) : 0.270
Stream size : 8.93 GiB (91%)
Title : ***селезень*** The.Accountant.2016
Writing library : x264 core 146 r2538 121396c
Encoding settings : cabac=1 / ref=5 / deblock=1:-3:-3 / analyse=0x3:0x133 / me=umh / subme=11 / psy=1 / psy_rd=1.05:0.05 / mixed_ref=1 / me_range=48 / chroma_me=1 / trellis=2 / 8x8dct=1 / cqm=0 / deadzone=21,11 / fast_pskip=0 / chroma_qp_offset=-3 / threads=6 / lookahead_threads=1 / sliced_threads=0 / nr=0 / decimate=0 / interlaced=0 / bluray_compat=0 / constrained_intra=0 / bframes=10 / b_pyramid=2 / b_adapt=2 / b_bias=0 / direct=3 / weightb=1 / open_gop=0 / weightp=2 / keyint=240 / keyint_min=23 / scenecut=40 / intra_refresh=0 / rc_lookahead=50 / rc=2pass / mbtree=0 / bitrate=10001 / ratetol=1.0 / qcomp=0.60 / qpmin=0 / qpmax=69 / qpstep=4 / cplxblur=20.0 / qblur=0.5 / vbv_maxrate=50000 / vbv_bufsize=62500 / nal_hrd=none / filler=0 / ip_ratio=1.40 / pb_ratio=1.30 / aq=1:0.80
Language : English
Default : Yes
Forced : No

Audio #1
ID : 2
Format : AC-3
Format/Info : Audio Coding 3
Mode extension : CM (complete main)
Format settings, Endianness : Big
Codec ID : A_AC3
Duration : 2 h 7 min
Bit rate mode : Constant
Bit rate : 384 kb/s
Channel(s) : 6 channels
Channel positions : Front: L C R, Side: L R, LFE
Sampling rate : 48.0 kHz
Frame rate : 31.250 FPS (1536 spf)
Compression mode : Lossy
Stream size : 351 MiB (3%)
Title : Dub [iTunes]
Language : Russian
Default : Yes
Forced : No

Audio #2
ID : 3
Format : AC-3
Format/Info : Audio Coding 3
Mode extension : CM (complete main)
Format settings, Endianness : Big
Codec ID : A_AC3
Duration : 2 h 7 min
Bit rate mode : Constant
Bit rate : 640 kb/s
Channel(s) : 6 channels
Channel positions : Front: L C R, Side: L R, LFE
Sampling rate : 48.0 kHz
Frame rate : 31.250 FPS (1536 spf)
Compression mode : Lossy
Stream size : 585 MiB (6%)
Title : Original
Language : English
Default : No
Forced : No

Text #1
ID : 4
Format : UTF-8
Codec ID : S_TEXT/UTF8
Codec ID/Info : UTF-8 Plain Text
Duration : 1 h 53 min
Bit rate : 2 b/s
Count of elements : 39
Stream size : 2.04 KiB (0%)
Title : Forced
Language : Russian
Default : Yes
Forced : No

Text #2
ID : 5
Format : UTF-8
Codec ID : S_TEXT/UTF8
Codec ID/Info : UTF-8 Plain Text
Duration : 2 h 7 min
Bit rate : 94 b/s
Count of elements : 1546
Stream size : 88.1 KiB (0%)
Title : Full
Language : Russian
Default : No
Forced : No

Text #3
ID : 6
Format : UTF-8
Codec ID : S_TEXT/UTF8
Codec ID/Info : UTF-8 Plain Text
Duration : 1 h 58 min
Bit rate : 54 b/s
Count of elements : 1495
Stream size : 47.5 KiB (0%)
Title : Full
Language : English
Default : No
Forced : No

Text #4
ID : 7
Format : UTF-8
Codec ID : S_TEXT/UTF8
Codec ID/Info : UTF-8 Plain Text
Duration : 1 h 59 min
Bit rate : 59 b/s
Count of elements : 1700
Stream size : 52.3 KiB (0%)
Title : SDH
Language : English
Default : No
Forced : No

Menu
00:00:00.000 : en:Chapter 01
00:13:01.447 : en:Chapter 02
00:20:36.276 : en:Chapter 03
00:29:30.393 : en:Chapter 04
00:38:44.655 : en:Chapter 05
00:49:33.679 : en:Chapter 06
01:00:05.435 : en:Chapter 07
01:13:39.706 : en:Chapter 08
01:25:57.068 : en:Chapter 09
01:39:15.658 : en:Chapter 10
01:54:31.155 : en:Chapter 11
02:01:40.251 : en:Chapter 12


Скриншотыскриншот   скриншот   скриншот   скриншот   скриншот   скриншот  pb.wtf



Скачать Расплата через торрент http://i88.fastpic.ru/big/2016/1228/32/429b2f23bf6cb1d5509466da20abce32.png Скачать фильм Расплата через торрент бесплантно в хорошем качестве Описание: Лента расскажет историю математического гения Кристиана Вульфа, который подрабатывает аудитором для самых опасных преступных ... 9.9 10 35
Info! Золотая раздача, скачанное не засчитывается.
Торрент: Зарегистрирован [2016-12-28 05:57] · скачан: 2 019 раз
Статус: √ проверено
Размер: 9.85 GB
Как cкачать? Как скачать Расплата через торрент | qTorrent

% Раздел Тема Автор DL S | L
Ultra HD (UHD: 2K, 4K, 8K) — видео сверхвысокой чёткости [ 59.37 GB ] Расплата / The Accountant [2016 UHD BDRemux 2160p] DUB + 6xAVO sheker187 Скачать
1 | 0
Фильмы [HD 720p, 1080p] (Хороший звук DUB, MVO) [ 7.65 GB ] Расплата / The Accountant [2016 BDRip-HEVC 1080p ] DUB [] bober100 Скачать
1 | 0
Фильмы 2016 [DVDrip, WEB-DLRip, HDrip] (DUB, MVO) [ 2.18 GB ] Расплата / The Accountant [2016 BDRip] - [] Twi7ter Скачать
1 | 0
Фильмы (Blu-ray, BD-Remux, HDDVD) [ 37.76 GB ] Расплата / The Accountant [2016 Blu-Ray CEE 1080p] DUB [] bober100 Скачать
1 | 0
Фильмы [HD 720p, 1080p] (Хороший звук DUB, MVO) [ 7.95 GB ] Расплата / The Accountant [2016 BDRip 720p от _denis_100 | NNNB] DUB + 3xAVO + VO + Original + Sub _denis_100 Скачать
1 | 0
Фильмы 2016 [DVDrip, WEB-DLRip, HDrip] (DUB, MVO) [ 1.46 GB ] Расплата / The Accountant [2016 BDRip] - [] Twi7ter Скачать
1 | 0
Фильмы 2016 [DVDrip, WEB-DLRip, HDrip] (DUB, MVO) [ 2.13 GB ] Расплата / The Accountant [2016 BDRip] - Twi7ter Скачать
1 | 0

28-11-2019 20:33  

Отключить всю рекламу на сайте

28-12-2016 06:31 Расплата Скачать торрент  

Кто подскажет, что за исполнитель начинается с 00.06.48???pb.wtf



31-12-2016 00:38 Расплата Скачать торрент  

отличный фильм во всех отношениях!!! pb.wtf



02-01-2017 17:20 Расплата Скачать торрент  

Отличный фильм! Советую!pb.wtf



03-01-2017 12:27 Расплата Скачать торрент  

Да ,фильм хорош !pb.wtf



07-01-2017 07:12 Расплата Скачать торрент  

спасибо!pb.wtf



09-01-2017 20:05 Расплата Скачать торрент  

Да. Все по-серьезному даже слишком. Хоть бы прикололся бы кто-нить за пару часов или бзданул во время укладки очередных пачек неприятеля. (Бену нельзя было, он болел). Пойду включу Чарли Чаплина на 15 минут. Авторам спс.pb.wtf



    Дорогой пользователь! Огромная просьба, поблагодарите релизера, оцените раздачу и оставьте свои комментарий, если Вы скачали Расплата через торрент бесплатно! Внесите свою лепту в развитие PiratBit!
    Комментировать посты могут только пользователи прошедшие не сложную регистрацию
    Показать сообщения:    

    Расплата через торрент
    Скачать бесплатно Расплата
    Расплата скачать торрент
    Расплата смотреть онлайн
    Cкачать фильм Расплата бесплатно
    Расплата скачать торрент в хорошем качестве
    Расплата смотреть онлайн бесплатно в хорошем качестве


    Вы не можете начинать темы
    Вы не можете отвечать на сообщения
    Вы не можете редактировать свои сообщения
    Вы не можете удалять свои сообщения
    Вы не можете голосовать в опросах
    Вы не можете прикреплять файлы к сообщениям
    Вы можете скачивать файлы