Ссылка на приватное зеркало нашего сайта всего за 1$. Внимание количество ограничено!!!

2 сезон

iTunes

1 сезон

1

iTunes

iTunes

iTunes

1 сезон

RePack

30

ИГРА 18+

pack

ВАЖНО

!!Акция!!

Alien_RageХит недели

RePack

MK11
pack

Забери бонус

RePack

jed

!!Акция!!

Alien_Rage

RePack

fifa19

RePack

Assassins Creed: Odyssey

RePack

NEED FOR SPEED™ PAYBACK

4 сезон

9 сезон

Бесстыжие 9 сезон

Все сериалы

все сериалы на PB.wtf

RePack

FAR CRY 5
  

Убийца / Point of No Return (Джон Бэдэм) [1993, боевик, триллер, драма, мелодрама, криминал, BDRip 720p by msltel] DUB, AVO pb.wtf

Убийца через торрент pb.wtf

Размер: 4.74 GB | Добавлен: 3 года 9 мес. назад | Торрент скачан:75 раз
Скачать  

28-12-2016 12:12 Убийца Скачать торрент  

Название: Убийца
Оригинальное название: Point of No Return
Год выпуска: 1993
Страна: США
Жанр: боевик, триллер, драма, мелодрама, криминал
Продолжительность: 01:48:22
Перевод: дублированный, авторский

Режиссёр: Джон Бэдэм

В ролях: Гэбриел Бирн, Бриджит Фонда, Дермот Малруни, Мигель Феррер, Оливия Д'Або, Ричард Романус, Харви Кейтель, Лоррэйн Туссэн, Мик Роджерс, Майкл Рапапорт, Джон Каподайс, Кармен Запата, Кэлвин Левелс, Майкл Раньярд, Билл М. Рюисаки, Ян Спек, Питер Марк Васкес, Джеймс Хэнди, Ли Дюпри, Кенни Эндосо, Гэри Каспер, Франсуа Чау, Фрэнк Жирардо, Франческо Мессина, Джоди Маркелл, Гарри Перри, Брюс Барнс, Джо Гарсиа

Описание: Жестокая, напичканная наркотиками, она была обвинена в убийстве и приговорена к смерти. Но секретная государственная служба превратила её из обитательницы камеры смертников в убийцу-профессионала, живущего взаймы...



Качество: BDRip 720p
Формат: MKV
Видео: MPEG-4 AVC, 4728 Кбит/с, 1280x536, 23,976 кадра/с
Аудио 1: русский, AC3, 448 kbps, 6 ch, 48 kHz [дублированный]
Аудио 2: русский, AC3, 448 kbps, 6 ch, 48 kHz [авторский, Андрей Гаврилов]
Аудио 3: английский, AC3, 640 kbps, 6 ch, 48 kHz [оригинал]
Субтитры 1: русские
Субтитры 2: английские
Имеются неименованные главы/чаптеры.
Общее
Уникальный идентификатор : 214418445498848586210184837691539250622 (0xA14F7D9032658D9E8B5DCABB7B94DDBE)
Полное имя : D:\Video\Убийца.1993.BDRip.720p by msltel.mkv
Формат : Matroska
Версия формата : Version 4 / Version 2
Размер файла : 4,74 Гбайт
Продолжительность : 1 ч. 48 м.
Общий поток : 6265 Кбит/сек
Название фильма : Rip by msltel
Дата кодирования : UTC 2016-12-28 11:00:27
Программа кодирования : mkvmerge v8.2.0 ('World of Adventure') 64bit
Библиотека кодирования : libebml v1.3.1 + libmatroska v1.4.2

Видео
Идентификатор : 1
Формат : AVC
Формат/Информация : Advanced Video Codec
Профиль формата : High@L4.1
Параметр CABAC формата : Да
Параметр ReFrames формата : 9 кадров
Идентификатор кодека : V_MPEG4/ISO/AVC
Продолжительность : 1 ч. 48 м.
Битрейт : 4728 Кбит/сек
Ширина : 1280 пикселей
Высота : 536 пикселей
Соотношение сторон : 2,40:1
Режим частоты кадров : Постоянный
Частота кадров : 23,976 (24000/1001) кадра/сек
Цветовое пространство : YUV
Субдискретизация насыщенности : 4:2:0
Битовая глубина : 8 бит
Тип развёртки : Прогрессивная
Бит/(Пиксели*Кадры) : 0.287
Размер потока : 3,58 Гбайт (75%)
Библиотека кодирования : x264 core 146 r2538 121396c
Настройки программы : cabac=1 / ref=9 / deblock=1:-3:-3 / analyse=0x3:0x113 / me=umh / subme=10 / psy=1 / psy_rd=1.00:0.15 / mixed_ref=1 / me_range=32 / chroma_me=1 / trellis=2 / 8x8dct=1 / cqm=0 / deadzone=21,11 / fast_pskip=0 / chroma_qp_offset=-3 / threads=6 / lookahead_threads=1 / sliced_threads=0 / nr=0 / decimate=1 / interlaced=0 / bluray_compat=0 / constrained_intra=0 / bframes=16 / b_pyramid=2 / b_adapt=2 / b_bias=0 / direct=1 / weightb=0 / open_gop=0 / weightp=2 / keyint=230 / keyint_min=23 / scenecut=40 / intra_refresh=0 / rc_lookahead=40 / rc=crf / mbtree=0 / crf=20.4 / qcomp=0.60 / qpmin=0 / qpmax=69 / qpstep=4 / vbv_maxrate=50000 / vbv_bufsize=62500 / crf_max=0.0 / nal_hrd=none / filler=0 / ip_ratio=1.40 / pb_ratio=1.30 / aq=1:1.00
Язык : English
Default : Да
Forced : Нет

Аудио #1
Идентификатор : 2
Формат : AC-3
Формат/Информация : Audio Coding 3
Расширение режима : CM (complete main)
Параметр Endianness формата : Big
Идентификатор кодека : A_AC3
Продолжительность : 1 ч. 48 м.
Вид битрейта : Постоянный
Битрейт : 448 Кбит/сек
Каналы : 6 каналов
Расположение каналов : Front: L C R, Side: L R, LFE
Частота : 48,0 КГц
Частота кадров : 31,250 кадров/сек (1536 spf)
Метод сжатия : С потерями
Размер потока : 347 Мбайт (7%)
Заголовок : DUB
Язык : Russian
Default : Да
Forced : Нет

Аудио #2
Идентификатор : 3
Формат : AC-3
Формат/Информация : Audio Coding 3
Расширение режима : CM (complete main)
Параметр Endianness формата : Big
Идентификатор кодека : A_AC3
Продолжительность : 1 ч. 48 м.
Вид битрейта : Постоянный
Битрейт : 448 Кбит/сек
Каналы : 6 каналов
Расположение каналов : Front: L C R, Side: L R, LFE
Частота : 48,0 КГц
Частота кадров : 31,250 кадров/сек (1536 spf)
Метод сжатия : С потерями
Размер потока : 347 Мбайт (7%)
Заголовок : AVO (Андрей Гаврилов)
Язык : Russian
Default : Нет
Forced : Нет

Аудио #3
Идентификатор : 4
Формат : AC-3
Формат/Информация : Audio Coding 3
Расширение режима : CM (complete main)
Параметр Endianness формата : Big
Идентификатор кодека : A_AC3
Продолжительность : 1 ч. 48 м.
Вид битрейта : Постоянный
Битрейт : 640 Кбит/сек
Каналы : 6 каналов
Расположение каналов : Front: L C R, Side: L R, LFE
Частота : 48,0 КГц
Частота кадров : 31,250 кадров/сек (1536 spf)
Метод сжатия : С потерями
Размер потока : 496 Мбайт (10%)
Заголовок : original
Язык : English
Default : Нет
Forced : Нет

Текст #1
Идентификатор : 5
Формат : UTF-8
Идентификатор кодека : S_TEXT/UTF8
Идентификатор кодека/Информация : UTF-8 Plain Text
Продолжительность : 1 ч. 42 м.
Битрейт : 53 бит/сек
Count of elements : 940
Размер потока : 40,0 Кбайт (0%)
Заголовок : русские
Язык : Russian
Default : Нет
Forced : Нет

Текст #2
Идентификатор : 6
Формат : UTF-8
Идентификатор кодека : S_TEXT/UTF8
Идентификатор кодека/Информация : UTF-8 Plain Text
Продолжительность : 1 ч. 47 м.
Битрейт : 43 бит/сек
Count of elements : 1155
Размер потока : 34,7 Кбайт (0%)
Заголовок : английские
Язык : English
Default : Нет
Forced : Нет

Меню
00:00:00.000 : :00:00:00.000
00:05:29.204 : :00:05:29.204
00:08:33.847 : :00:08:33.847
00:12:25.078 : :00:12:25.078
00:16:06.924 : :00:16:06.924
00:17:54.657 : :00:17:54.657
00:21:55.689 : :00:21:55.689
00:26:57.950 : :00:26:57.950
00:29:32.270 : :00:29:32.270
00:32:17.853 : :00:32:17.853
00:39:53.266 : :00:39:53.266
00:42:29.881 : :00:42:29.881
00:47:20.004 : :00:47:20.004
00:50:42.790 : :00:50:42.790
00:53:55.357 : :00:53:55.357
00:55:33.330 : :00:55:33.330
00:59:54.174 : :00:59:54.174
01:01:48.371 : :01:01:48.371
01:05:42.897 : :01:05:42.897
01:09:17.779 : :01:09:17.779
01:16:18.908 : :01:16:18.908
01:19:22.049 : :01:19:22.049
01:21:55.869 : :01:21:55.869
01:24:41.076 : :01:24:41.076
01:27:47.304 : :01:27:47.304
01:30:10.196 : :01:30:10.196
01:35:18.588 : :01:35:18.588
01:39:25.376 : :01:39:25.376
01:42:53.876 : :01:42:53.876
01:44:51.368 : :01:44:51.368
pb.wtf



Скачать Убийца через торрент http://s013.radikal.ru/i322/1612/fd/159b5023f8a8.jpg Скачать фильм Убийца через торрент бесплантно в хорошем качестве Описание: Жестокая, напичканная наркотиками, она была обвинена в убийстве и приговорена к смерти. Но секретная государственная служба ... 8.7 10 3
Торрент: Зарегистрирован [2016-12-28 12:12] · скачан: 75 раз
Статус: √ проверено
Размер: 4.74 GB
Как cкачать? Как скачать Убийца через торрент | qTorrent

% Раздел Тема Автор DL S | L
Фильмы [HD 720p, 1080p] (Хороший звук DUB, MVO) [ 11 GB ] Убийца / Point of No Return [1993 BDRip 1080p by msltel] DUB AVO msltel Скачать
1 | 0


Последний раз редактировалось: msltel (2016-12-31 12:50), всего редактировалось 3 раз(а)

28-11-2019 20:33  

Отключить всю рекламу на сайте

28-12-2016 16:15 Убийца Скачать торрент  

раньше этот фильм назывался "Никита". и от него уже пошли сериалы про девочку-убийцуpb.wtf



    Дорогой пользователь! Огромная просьба, поблагодарите релизера, оцените раздачу и оставьте свои комментарий, если Вы скачали Убийца через торрент бесплатно! Внесите свою лепту в развитие PiratBit!
    Комментировать посты могут только пользователи прошедшие не сложную регистрацию
    Показать сообщения:    

    Убийца через торрент
    Скачать бесплатно Убийца
    Убийца скачать торрент
    Убийца смотреть онлайн
    Cкачать фильм Убийца бесплатно
    Убийца скачать торрент в хорошем качестве
    Убийца смотреть онлайн бесплатно в хорошем качестве


    Вы не можете начинать темы
    Вы не можете отвечать на сообщения
    Вы не можете редактировать свои сообщения
    Вы не можете удалять свои сообщения
    Вы не можете голосовать в опросах
    Вы не можете прикреплять файлы к сообщениям
    Вы можете скачивать файлы