Ссылка на приватное зеркало всего за 1$. Внимание количество ограничено!!!

iTunes

iTunes

iTunes

1

iTunes

iTunes

iTunes

iTunes

iTunes

30
pack

$ от Little Big

ВАЖНО

!!Акция!!

Alien_RageХит недели

RePack

Resident Evil 21

ИГРА 18+

pack

RePack

jed

!!Акция!!

Alien_Rage

RePack

fifa19

RePack

Assassins Creed: Odyssey

RePack

NEED FOR SPEED™ PAYBACK

4 сезон

9 сезон

Бесстыжие 9 сезон

Все сериалы

все сериалы на PB.wtf

RePack

FAR CRY 5
  

Девушка в поезде / The Girl on the Train (Тейт Тейлор) [2016, триллер, драма, детектив, WEB-DL 1080p] Дубляж - [Лицензия / iTunes] pb.wtf

Девушка в поезде через торрент pb.wtf

Раздают: 1 [ 0 KB/s ]
Размер: 4.38 GB | Добавлен: 3 года 6 мес. назад | Торрент скачан:2665 раз
Скачать  

28-12-2016 20:19 Девушка в поезде Скачать торрент  


Девушка в поезде / The Girl on the Train
««Чужие тайны могут быть опасны»»

ИНФОРМАЦИЯ:
Год выпуска:2016
Страна: США
Жанр: триллер, драма, детектив
Продолжительность: 01:52:05
Перевод: Дубляж - [Лицензия / iTunes]
Режиссер: Тейт Тейлор

В Ролях:


Эмили Блант (Rachel), Хейли Беннетт (Megan), Ребекка Фергюсон (Anna), Джастин Теру (Tom), Люк Эванс (Scott), Эдгар Рамирес (Dr. Kamal Abdic), Лора Припон (Cathy), Эллисон Дженни (Detective Riley), Даррен Голдштейн (Man in the Suit), Лиза Кудроу (Martha), Клета Элейн Эллингтон (Oyster Bar Woman), Лана Янг (Doctor)

ОПИСАНИЕ:
Каждый день поезд проносит Рэйчел мимо очаровательного коттеджа, где живет идеальная на первый взгляд пара. Но однажды идиллия разрушится - прекрасная незнакомка бесследно исчезнет. Рэйчел окажется втянута в весьма запутанную историю, ведь только она видела из окна то, что было скрыто ото всех.

  • Мировая премьера:20 сентября 2016

    ТЕХ.ДАННЫЕ:
    Качество: WEB-DL 1080p
    Формат: MKV
    Видео: AVC, 1916x1032 (1.85:1), 5019 kbps, 23,976 fps, 0,106 bpp
    Аудио: русский / AC3 / 5.1 / 48 kHz / 384 kbps / ||
    Навигация по главам: есть


    General
    Unique ID : 188581710804360189220419215779444034191 (0x8DDF84317DF89421911EDA9380100A8F)
    Complete name : W:\Торенты\T_GIRL_IT_TRAIN_WEB_DL_1080p-BLUEBIRD.mkv
    Format : Matroska
    Format version : Version 4 / Version 2
    File size : 4.32 GiB
    Duration : 1 h 52 min
    Overall bit rate : 5 513 kb/s
    Movie name : T_GIRL_IT_TRAIN_WEB_DL_1080p-BLUEBIRD
    Encoded date : UTC 2016-12-28 19:24:35
    Writing application : mkvmerge v6.9.1 ('Blue Panther') 32bit built on Apr 18 2014 18:15:44
    Writing library : libebml v1.3.0 + libmatroska v1.4.1
    IsTruncated : Yes

    Video
    ID : 1
    Format : AVC
    Format/Info : Advanced Video Codec
    Format profile : High@L4
    Format settings, CABAC : Yes
    Format settings, ReFrames : 4 frames
    Codec ID : V_MPEG4/ISO/AVC
    Duration : 1 h 52 min
    Bit rate : 5 020 kb/s
    Width : 1 916 pixels
    Height : 1 032 pixels
    Display aspect ratio : 1.85:1
    Frame rate mode : Constant
    Frame rate : 23.976 FPS
    Color space : YUV
    Chroma subsampling : 4:2:0
    Bit depth : 8 bits
    Scan type : Progressive
    Bits/(Pixel*Frame) : 0.106
    Stream size : 3.93 GiB (91%)
    Title : T_GIRL_IT_TRAIN_WEB_DL_1080p-BLUEBIRD
    Language : English
    Default : Yes
    Forced : No
    Color range : Limited
    Color primaries : BT.709
    Transfer characteristics : BT.709
    Matrix coefficients : BT.709

    Audio
    ID : 2
    Format : AC-3
    Format/Info : Audio Coding 3
    Mode extension : CM (complete main)
    Format settings, Endianness : Big
    Codec ID : A_AC3
    Duration : 1 h 52 min
    Bit rate mode : Constant
    Bit rate : 384 kb/s
    Channel(s) : 6 channels
    Channel positions : Front: L C R, Side: L R, LFE
    Sampling rate : 48.0 kHz
    Frame rate : 31.250 FPS (1536 spf)
    Compression mode : Lossy
    Stream size : 308 MiB (7%)
    Title : [DUB] DD 5.1 @ 384 kbps (iTunes)
    Language : Russian
    Default : Yes
    Forced : No

    Menu
    00:00:00.000 : en:1
    00:06:02.779 : en:2
    00:09:30.903 : en:3
    00:18:16.970 : en:4
    00:25:27.150 : en:5
    00:32:05.506 : en:6
    00:37:05.973 : en:7
    00:44:53.315 : en:8
    00:49:23.460 : en:9
    00:55:08.012 : en:10
    00:59:37.031 : en:11
    01:03:35.811 : en:12
    01:09:26.786 : en:13
    01:14:37.429 : en:14
    01:19:09.701 : en:15
    01:23:45.727 : en:16
    01:28:08.489 : en:17
    01:33:50.455 : en:18
    01:38:55.551 : en:19
    01:45:56.179 : en:20
    Скриншоты:

    © Оформление by .::Ворон::.
    pb.wtf



  • Скачать Девушка в поезде через торрент http://i86.fastpic.ru/big/2016/1228/8c/41c0a6c7dbbf3e961d8338aa8443a38c.png Скачать фильм Девушка в поезде через торрент бесплантно в хорошем качестве Е:Каждый день поезд проносит Рэйчел мимо очаровательного коттеджа, где живет идеальная на первый взгляд пара. Но однажды идиллия разрушится ... 9.4 10 60
    Info! Золотая раздача, скачанное не засчитывается.
    Торрент: Зарегистрирован [2016-12-28 20:19] · скачан: 2 665 раз
    Статус: √ проверено
    Размер: 4.38 GB
    Как cкачать? Как скачать Девушка в поезде через торрент | qTorrent

    % Раздел Тема Автор DL S | L
    Фильмы [HD 720p, 1080p] (Хороший звук DUB, MVO) [ 11.46 GB ] Девушка в поезде / The Girl on the Train [2016 BDRip 1080p] DUB + 2хAVO - KORSAR kisa1980 Скачать
    2 | 0
    Фильмы [HD 720p, 1080p] (Хороший звук DUB, MVO) [ 6.52 GB ] Девушка в поезде / The Girl on the Train [2016 BDRip 720p] DUB + 2хAVO - KORSAR kisa1980 Скачать
    2 | 0
    Ultra HD (UHD: 2K, 4K, 8K) — видео сверхвысокой чёткости [ 53.05 GB ] Девушка в поезде / The Girl on the Train [2016 UHD BDRemux 2160p] 2xAVO [Гаврилов Немахов] +DUB [] bober100 Скачать
    1 | 0
    Фильмы с авторской озвучкой [ 1.46 GB ] Девушка в поезде / The Girl on the Train [2016 BDRip] [AVO] killermax2013 Скачать
    1 | 0
    Фильмы (Blu-ray, BD-Remux, HDDVD) [ 29.24 GB ] Девушка в поезде / The Girl on the Train [2016 BD Remux 1080p] DUB [] bober100 Скачать
    1 | 0
    Фильмы 2016 [DVDrip, WEB-DLRip, HDrip] (DUB, MVO) [ 2.17 GB ] Девушка в поезде / The Girl on the Train [2016 HDRip "BD EUR"] coc900 Скачать
    1 | 0
    R.G. Resident & PiratVoice - Фильмы, Видео [ 2.8 GB ] Девушка в поезде / The Girl on the Train [2016 BDRip-AVC от R.G. Resident] - [] -Lexx- Скачать
    1 | 0

    28-11-2019 20:33  

    Отключить всю рекламу на сайте

    30-12-2016 05:43 Девушка в поезде Скачать торрент  

    Вполне себе хороший детектив, но не много скучноват порою, но прям на разок самое то 6/10pb.wtf



    30-12-2016 14:33 Девушка в поезде Скачать торрент  

    jason69 писал(а):

    Вполне себе хороший детектив, но не много скучноват порою, но прям на разок самое то 6/10

    Поддерживаю фильм неплох.pb.wtf



    03-01-2017 23:01 Девушка в поезде Скачать торрент  

    тяжеловат для восприятия. но в принципе нормpb.wtf



    17-04-2017 07:17 Девушка в поезде Скачать торрент  

    нормальный фильм, но местами скучноватpb.wtf



      Дорогой пользователь! Огромная просьба, поблагодарите релизера, оцените раздачу и оставьте свои комментарий, если Вы скачали Девушка в поезде через торрент бесплатно! Внесите свою лепту в развитие PiratBit!
      Комментировать посты могут только пользователи прошедшие не сложную регистрацию
      Показать сообщения:    

      Девушка в поезде через торрент
      Скачать бесплатно Девушка в поезде
      Девушка в поезде скачать торрент
      Девушка в поезде смотреть онлайн
      Cкачать фильм Девушка в поезде бесплатно
      Девушка в поезде скачать торрент в хорошем качестве
      Девушка в поезде смотреть онлайн бесплатно в хорошем качестве


      Вы не можете начинать темы
      Вы не можете отвечать на сообщения
      Вы не можете редактировать свои сообщения
      Вы не можете удалять свои сообщения
      Вы не можете голосовать в опросах
      Вы не можете прикреплять файлы к сообщениям
      Вы можете скачивать файлы