Ссылка на приватное зеркало нашего сайта всего за 1$. Внимание количество ограничено!!!

2 сезон

iTunes

1 сезон

1

2 сезон

2 сезон

iTunes

1 сезон

RePack

30

Ultimate

ВАЖНО

ИГРА 18+

pack

RePack

MK11
pack

Забери бонус

RePack

jed

!!Акция!!

Alien_Rage

RePack

fifa19

RePack

Assassins Creed: Odyssey

RePack

NEED FOR SPEED™ PAYBACK

4 сезон

9 сезон

Бесстыжие 9 сезон

Все сериалы

все сериалы на PB.wtf

RePack

FAR CRY 5
  

Под прикрытием / Gangland Undercover / Сезон: 2 / Серии 1-8 из 8 (Rawles Neil, Карл Хиндмарч / Carl Hindmarch, Stephen Kemp) [2016, Канада, США, драма, криминал, биография, WEB-DLRip-AVC] MVO [NewStudio] pb.wtf

Под прикрытием через торрент pb.wtf

Размер: 4.92 GB | Добавлен: 3 года 7 мес. назад | Торрент скачан:41 раз
Скачать  

29-12-2016 06:18 Под прикрытием Скачать торрент  

Под прикрытием / Gangland Undercover


  • Год выпуска: 2016
  • Страна: Канада, США
  • Жанр: драма, криминал, биография, история
  • Продолжительность: 00:43:03 (Серия)
  • Перевод: Профессиональный многоголосый
  • Режиссер: Rawles Neil, Карл Хиндмарч / Carl Hindmarch, Stephen Kemp
  • В ролях:

    Дэймон Рунян (Charles Falco), Стефен МакИнтайр (The Devil), Йен Мэтьюз (Darko), Эри Коэн (Koz), Ханна Андерсон (Sarah Jane), Кристиан Бако (Sputnik), Джоэнн Боланд (Meredith), Мелани Скрофано (Suzanna), Паулино Нюнс (Schizo), Дон Фрэнкс (Lizard), Шон Бенсон (Crowbar), Джеймс Кейд (Stash)


  • Биографическая криминальная драма рассказывает правдивую историю о человеке, который живет двойной жизнью на протяжении трех лет. Чарльз Фалько дилер, ему грозит двадцать лет тюрьмы по обвинению в торговле наркотиками. Но, чтобы избежать этого, Чарльз заключает сделку - он становится агентом ATF. Его миссия очень опасна. Фалько должен проникнуть в одну из самых жестоких банд Америки. Члены этой преступной группировки занимаются торговлей оружием и наркотиками, убийствами и отмыванием денег. Опаснейшая полицейская операция успешно завершилась в марте 2006 года.
  • Рейтинг:



  • Качество: WEB-DLRip-AVC
  • Формат: :MPEG-4
  • Видео кодек: AVC
  • Аудио кодек: AC3
  • Видео: 1024x576 (16:9), 1400 kbps, 23,976 fps, 0,141 bpp
  • Аудио №1: русский / 2.0 / 48 kHz / 384 kbps / 16 bit |[NewStudio]|
  • Аудио №2: английский / 2.0 / 48 kHz / 384 kbps / 16 bit
  • Релиз от: GEKADOL

    Внимание! Раздача ведётся путём добавления новых серий; при каждом добавлении создаётся новый торрент. Чтобы начать докачку новой серии, пользователям необходимо сделать следующее:
    (1) остановить скачивание,
    (2) удалить старый торрент у себя из клиента (старые серии удалять не надо),
    (3) скачать новый торрент и запустить его у себя в клиенте вместо старого, при этом указать клиенту путь в старую папку куда и должно происходить скачивание новых серий.
    Ваш клиент при этом должен произвести хеширование (проверку) старой папки (если не производит сам - помогите ему сделать это), и будет докачивать только те серии которых у вас ещё нет. Старые серии при этом не удаляются, а продолжают раздаваться!
    Eсли вы уже удалили старые серии, то предотвратить повторную закачку старых серий можно, отжав галочку в соответствующих местах при запуске нового торрента. По возможности, желательно не удалять старые серии как можно дольше чтобы релизёр не столько продолжал раздавать старые серии, а смог сконцентрироваться на новых.

    General
    Complete name : H:\Под прикрытием (Сезон 2 Gangland Undercover)\Gangland.Undercover.s02e01.WEB-DLRip-AVC.NewStudio.TV.mp4
    Format : MPEG-4
    Format profile : Base Media
    Codec ID : isom (isom/iso2/avc1/mp41)
    File size : 854 MiB
    Duration : 43 min
    Overall bit rate : 1 774 kb/s
    Writing application : XviD4PSP 7.0.338 DAILY
    HDVideo : Yes
    encoding_info : MATROSKA / WEBM > MP4 Произвольный / H264 > X264 CBR 2000kbps HQ / AC3 > AC3 CBR 384kbps / AAC-LC > AC3 CBR 384kbps

    Video
    ID : 1
    Format : AVC
    Format/Info : Advanced Video Codec
    Format profile : High@L4.1
    Format settings, CABAC : Yes
    Format settings, ReFrames : 4 frames
    Codec ID : avc1
    Codec ID/Info : Advanced Video Coding
    Duration : 43 min
    Bit rate : 1 400 kb/s
    Width : 1 024 pixels
    Height : 576 pixels
    Display aspect ratio : 16:9
    Frame rate mode : Constant
    Frame rate : 23.976 (24000/1001) FPS
    Color space : YUV
    Chroma subsampling : 4:2:0
    Bit depth : 8 bits
    Scan type : Progressive
    Bits/(Pixel*Frame) : 0.141
    Stream size : 616 MiB (72%)
    Writing library : x264 core 148 r2744M b97ae06
    Encoding settings : cabac=1 / ref=3 / deblock=1:-1:-1 / analyse=0x3:0x133 / me=hex / subme=7 / psy=1 / psy_rd=1.00:0.20 / mixed_ref=1 / me_range=16 / chroma_me=1 / trellis=1 / 8x8dct=1 / cqm=0 / deadzone=21,11 / fast_pskip=1 / chroma_qp_offset=-3 / threads=5 / lookahead_threads=1 / sliced_threads=0 / nr=0 / decimate=1 / interlaced=0 / bluray_compat=0 / constrained_intra=0 / bframes=3 / b_pyramid=2 / b_adapt=2 / b_bias=0 / direct=3 / weightb=1 / open_gop=0 / weightp=2 / keyint=230 / keyint_min=23 / scenecut=40 / intra_refresh=0 / rc_lookahead=40 / rc=cbr / mbtree=1 / bitrate=2000 / ratetol=1.0 / qcomp=0.60 / qpmin=0 / qpmax=69 / qpstep=4 / vbv_maxrate=2000 / vbv_bufsize=30000 / nal_hrd=none / filler=0 / ip_ratio=1.40 / aq=1:1.00
    Language : English
    Color range : Limited
    Color primaries : BT.709
    Transfer characteristics : BT.709
    Matrix coefficients : BT.709

    Audio #1
    ID : 2
    Format : AC-3
    Format/Info : Audio Coding 3
    Mode extension : CM (complete main)
    Format settings, Endianness : Big
    Codec ID : ac-3
    Duration : 43 min
    Bit rate mode : Constant
    Bit rate : 384 kb/s
    Channel(s) : 2 channels
    Channel positions : Front: L R
    Sampling rate : 48.0 kHz
    Frame rate : 31.250 FPS (1536 spf)
    Bit depth : 16 bits
    Compression mode : Lossy
    Stream size : 118 MiB (14%)
    Title : NewStudio.TV / NewStudio.TV
    Language : Russian
    Default : Yes
    Alternate group : 1

    Audio #2
    ID : 3
    Format : AC-3
    Format/Info : Audio Coding 3
    Mode extension : CM (complete main)
    Format settings, Endianness : Big
    Codec ID : ac-3
    Duration : 43 min
    Bit rate mode : Constant
    Bit rate : 384 kb/s
    Channel(s) : 2 channels
    Channel positions : Front: L R
    Sampling rate : 48.0 kHz
    Frame rate : 31.250 FPS (1536 spf)
    Bit depth : 16 bits
    Compression mode : Lossy
    Stream size : 118 MiB (14%)
    Language : English
    Default : No
    Alternate group : 1





    Скриншоты:
    скриншот   скриншот   скриншот   скриншот   скриншот   скриншот   скриншот  
    скриншот  

    Раздача ведётся путём добавления новых серий. Добавлена 8 серия (24.04.2017).Просьба перекачать торрент файл.

    pb.wtf



  • Скачать Под прикрытием через торрент http://i87.fastpic.ru/big/2016/1229/84/f8beeb82bab52de9be32dafdb1f8a184.jpeg Скачать фильм Под прикрытием через торрент бесплантно в хорошем качестве qw.png Биографическая криминальная драма рассказывает правдивую историю о человеке, который живет двойной жизнью на протяжении трех лет. ... 9.5 10 13
    Info! Золотая раздача, скачанное не засчитывается.
    Торрент: Зарегистрирован [2017-04-24 01:03] · скачан: 41 раз
    Статус: √ проверено
    Размер: 4.92 GB
    Как cкачать? Как скачать Под прикрытием через торрент | qTorrent



    Последний раз редактировалось: GEKADOL (2017-04-24 01:03), всего редактировалось 5 раз(а)

    28-11-2019 20:33  

    Отключить всю рекламу на сайте

    10-04-2017 11:18 Под прикрытием Скачать торрент  

    нет раздающих((( а с рекламой на NewStudio качать неохота.pb.wtf



    10-04-2017 17:11 Под прикрытием Скачать торрент  

    Дайте скорости! ну ееемаее(((pb.wtf



    10-04-2017 17:57 Под прикрытием Скачать торрент  

    А Чего остальные серии не выкладываете? Они же давно уже в сети есть. Сегодня последнюю в этом сезоне восьмую досматриваю.
    Норм сериальчик так то!pb.wtf



    05-06-2017 09:39 Под прикрытием Скачать торрент  

    плохое качество и реклама не вырезанаpb.wtf



      Дорогой пользователь! Огромная просьба, поблагодарите релизера, оцените раздачу и оставьте свои комментарий, если Вы скачали Под прикрытием через торрент бесплатно! Внесите свою лепту в развитие PiratBit!
      Комментировать посты могут только пользователи прошедшие не сложную регистрацию
      Показать сообщения:    

      Под прикрытием через торрент
      Скачать бесплатно Под прикрытием
      Под прикрытием скачать торрент
      Под прикрытием смотреть онлайн
      Cкачать фильм Под прикрытием бесплатно
      Под прикрытием скачать торрент в хорошем качестве
      Под прикрытием смотреть онлайн бесплатно в хорошем качестве


      Вы не можете начинать темы
      Вы не можете отвечать на сообщения
      Вы не можете редактировать свои сообщения
      Вы не можете удалять свои сообщения
      Вы не можете голосовать в опросах
      Вы не можете прикреплять файлы к сообщениям
      Вы можете скачивать файлы