Ссылка на приватное зеркало нашего сайта всего за 1$. Внимание количество ограничено!!!

2 сезон

iTunes

1 сезон

1

iTunes

iTunes

iTunes

1 сезон

RePack

30

ИГРА 18+

pack

ВАЖНО

!!Акция!!

Alien_RageХит недели

RePack

MK11
pack

Забери бонус

RePack

jed

!!Акция!!

Alien_Rage

RePack

fifa19

RePack

Assassins Creed: Odyssey

RePack

NEED FOR SPEED™ PAYBACK

4 сезон

9 сезон

Бесстыжие 9 сезон

Все сериалы

все сериалы на PB.wtf

RePack

FAR CRY 5
  

Гробница Лигейи / The Tomb of Ligeia (Роджер Корман) [1964, ужасы, триллер, драма, BDRip 720p by msltel] MVO, 2 x DVO pb.wtf

Гробница Лигейи через торрент pb.wtf

Размер: 3 GB | Добавлен: 3 года 9 мес. назад | Торрент скачан:41 раз
Скачать  

29-12-2016 07:00 Гробница Лигейи Скачать торрент  

Название: Гробница Лигейи
Оригинальное название: The Tomb of Ligeia
Год выпуска: 1964
Страна: Великобритания
Жанр: ужасы, триллер, драма
Продолжительность: 01:21:44
Перевод: профессиональный многоголосый, профессиональный двухголосый

Режиссёр: Роджер Корман

В ролях: Винсент Прайс, Элизабет Шеферд, Джон Уэстбрук, Дерек Френсис, Оливер Джонстон, Ричард Вернон, Фрэнк Торнтон, Роналд Адам, Денис Гилмор, Пенелопа Ли

Описание: Верден Фелл, ученый-египтолог, женится вторично после смерти своей горячо любимой жены Лигейи, увлекавшейся оккультизмом. Последними словами Лигейи были «Смерти себя не предаю». И вот, по прошествии некоторого времени, Фелл начинает замечать, что у его новой жены начинают проявляться черты Лигейи... По мотивам произведений Эдгара По.



Качество: BDRip 720p
Формат: MKV
Видео: MPEG-4 AVC, 4491 Кбит/с, 1280х548, 23,976 кадра/с
Аудио 1: русский, AC3, 192 kbps, 2 ch, 48 kHz [профессиональный многоголосый, Спб, 5 канал]
Аудио 2: русский, AC3, 192 kbps, 2 ch, 48 kHz [профессиональный двухголосый, HTB+]
Аудио 3: русский, AC3, 192 kbps, 2 ch, 48 kHz [профессиональный двухголосый]
Аудио 4: английский, AC3, 192 kbps, 1 ch, 48 kHz [оригинал]
Субтитры 1: русские
Субтитры 2: английские
Имеются неименованные главы/чаптеры.
Общее
Уникальный идентификатор : 190073781473934513163139547826574530039 (0x8EFEE0F4FF37795C91E2C6CA497315F7)
Полное имя : D:\Video\Гробница Лигейи.1964.BDRip.720p by msltel.mkv
Формат : Matroska
Версия формата : Version 4 / Version 2
Размер файла : 3,00 Гбайт
Продолжительность : 1 ч. 21 м.
Общий поток : 5261 Кбит/сек
Название фильма : Rip by msltel
Дата кодирования : UTC 2016-12-29 03:16:09
Программа кодирования : mkvmerge v8.2.0 ('World of Adventure') 64bit
Библиотека кодирования : libebml v1.3.1 + libmatroska v1.4.2

Видео
Идентификатор : 1
Формат : AVC
Формат/Информация : Advanced Video Codec
Профиль формата : High@L4.1
Параметр CABAC формата : Да
Параметр ReFrames формата : 9 кадров
Идентификатор кодека : V_MPEG4/ISO/AVC
Продолжительность : 1 ч. 21 м.
Битрейт : 4491 Кбит/сек
Ширина : 1280 пикселей
Высота : 548 пикселей
Соотношение сторон : 2,35:1
Режим частоты кадров : Постоянный
Частота кадров : 23,976 (24000/1001) кадра/сек
Цветовое пространство : YUV
Субдискретизация насыщенности : 4:2:0
Битовая глубина : 8 бит
Тип развёртки : Прогрессивная
Бит/(Пиксели*Кадры) : 0.267
Размер потока : 2,56 Гбайт (85%)
Библиотека кодирования : x264 core 146 r2538 121396c
Настройки программы : cabac=1 / ref=9 / deblock=1:-3:-3 / analyse=0x3:0x113 / me=umh / subme=10 / psy=1 / psy_rd=1.00:0.15 / mixed_ref=1 / me_range=32 / chroma_me=1 / trellis=2 / 8x8dct=1 / cqm=0 / deadzone=21,11 / fast_pskip=0 / chroma_qp_offset=-3 / threads=6 / lookahead_threads=1 / sliced_threads=0 / nr=0 / decimate=1 / interlaced=0 / bluray_compat=0 / constrained_intra=0 / bframes=16 / b_pyramid=2 / b_adapt=2 / b_bias=0 / direct=1 / weightb=0 / open_gop=0 / weightp=2 / keyint=230 / keyint_min=23 / scenecut=40 / intra_refresh=0 / rc_lookahead=40 / rc=crf / mbtree=0 / crf=19.5 / qcomp=0.60 / qpmin=0 / qpmax=69 / qpstep=4 / vbv_maxrate=50000 / vbv_bufsize=62500 / crf_max=0.0 / nal_hrd=none / filler=0 / ip_ratio=1.40 / pb_ratio=1.30 / aq=1:1.00
Язык : English
Default : Да
Forced : Нет

Аудио #1
Идентификатор : 2
Формат : AC-3
Формат/Информация : Audio Coding 3
Расширение режима : CM (complete main)
Параметр Endianness формата : Big
Идентификатор кодека : A_AC3
Продолжительность : 1 ч. 21 м.
Вид битрейта : Постоянный
Битрейт : 192 Кбит/сек
Каналы : 2 канала
Расположение каналов : Front: L R
Частота : 48,0 КГц
Частота кадров : 31,250 кадров/сек (1536 spf)
Метод сжатия : С потерями
Размер потока : 112 Мбайт (4%)
Заголовок : MVO (Спб, 5 канал)
Язык : Russian
Default : Да
Forced : Нет

Аудио #2
Идентификатор : 3
Формат : AC-3
Формат/Информация : Audio Coding 3
Расширение режима : CM (complete main)
Параметр Endianness формата : Big
Идентификатор кодека : A_AC3
Продолжительность : 1 ч. 21 м.
Вид битрейта : Постоянный
Битрейт : 192 Кбит/сек
Каналы : 2 канала
Расположение каналов : Front: L R
Частота : 48,0 КГц
Частота кадров : 31,250 кадров/сек (1536 spf)
Метод сжатия : С потерями
Размер потока : 112 Мбайт (4%)
Заголовок : DVO (HTB+)
Язык : Russian
Default : Нет
Forced : Нет

Аудио #3
Идентификатор : 4
Формат : AC-3
Формат/Информация : Audio Coding 3
Расширение режима : CM (complete main)
Параметр Endianness формата : Big
Идентификатор кодека : A_AC3
Продолжительность : 1 ч. 21 м.
Вид битрейта : Постоянный
Битрейт : 192 Кбит/сек
Каналы : 2 канала
Расположение каналов : Front: L R
Частота : 48,0 КГц
Частота кадров : 31,250 кадров/сек (1536 spf)
Метод сжатия : С потерями
Размер потока : 112 Мбайт (4%)
Заголовок : DVO
Язык : Russian
Default : Нет
Forced : Нет

Аудио #4
Идентификатор : 5
Формат : AC-3
Формат/Информация : Audio Coding 3
Расширение режима : CM (complete main)
Параметр Endianness формата : Big
Идентификатор кодека : A_AC3
Продолжительность : 1 ч. 21 м.
Вид битрейта : Постоянный
Битрейт : 192 Кбит/сек
Каналы : 1 канал
Расположение каналов : Front: C
Частота : 48,0 КГц
Частота кадров : 31,250 кадров/сек (1536 spf)
Метод сжатия : С потерями
Размер потока : 112 Мбайт (4%)
Заголовок : original
Язык : English
Default : Нет
Forced : Нет

Текст #1
Идентификатор : 6
Формат : UTF-8
Идентификатор кодека : S_TEXT/UTF8
Идентификатор кодека/Информация : UTF-8 Plain Text
Продолжительность : 1 ч. 20 м.
Битрейт : 62 бит/сек
Count of elements : 621
Размер потока : 36,9 Кбайт (0%)
Заголовок : русские
Язык : Russian
Default : Нет
Forced : Нет

Текст #2
Идентификатор : 7
Формат : UTF-8
Идентификатор кодека : S_TEXT/UTF8
Идентификатор кодека/Информация : UTF-8 Plain Text
Продолжительность : 1 ч. 19 м.
Битрейт : 36 бит/сек
Count of elements : 644
Размер потока : 21,2 Кбайт (0%)
Заголовок : английские
Язык : English
Default : Нет
Forced : Нет

Меню
00:00:00.000 : :Chapter 01
00:05:13.062 : :Chapter 02
00:12:15.150 : :Chapter 03
00:20:09.916 : :Chapter 04
00:25:05.629 : :Chapter 05
00:34:00.580 : :Chapter 06
00:40:00.981 : :Chapter 07
00:48:32.743 : :Chapter 08
00:55:01.172 : :Chapter 09
01:01:19.592 : :Chapter 10
01:06:42.122 : :Chapter 11
01:14:18.745 : :Chapter 12
01:21:43.273 : :Chapter 13
pb.wtf



Скачать Гробница Лигейи через торрент http://s018.radikal.ru/i512/1612/cf/a24afd1719dc.jpg Скачать фильм Гробница Лигейи через торрент бесплантно в хорошем качестве Описание: Верден Фелл, ученый-египтолог, женится вторично после смерти своей горячо любимой жены Лигейи, увлекавшейся оккультизмом. ... 10 10 3
Info! Золотая раздача, скачанное не засчитывается.
Торрент: Зарегистрирован [2016-12-29 07:00] · скачан: 41 раз
Статус: √ проверено
Размер: 3 GB
Как cкачать? Как скачать Гробница Лигейи через торрент | qTorrent

% Раздел Тема Автор DL S | L
Фильмы [HD 720p, 1080p] (Хороший звук DUB, MVO) [ 7.54 GB ] Гробница Лигейи / The Tomb of Ligeia [1964 BDRip 1080p by msltel] MVO 2 x DVO msltel Скачать
1 | 0

28-11-2019 20:33  

Отключить всю рекламу на сайте

    Дорогой пользователь! Огромная просьба, поблагодарите релизера, оцените раздачу и оставьте свои комментарий, если Вы скачали Гробница Лигейи через торрент бесплатно! Внесите свою лепту в развитие PiratBit!
    Комментировать посты могут только пользователи прошедшие не сложную регистрацию
    Показать сообщения:    

    Гробница Лигейи через торрент
    Скачать бесплатно Гробница Лигейи
    Гробница Лигейи скачать торрент
    Гробница Лигейи смотреть онлайн
    Cкачать фильм Гробница Лигейи бесплатно
    Гробница Лигейи скачать торрент в хорошем качестве
    Гробница Лигейи смотреть онлайн бесплатно в хорошем качестве


    Вы не можете начинать темы
    Вы не можете отвечать на сообщения
    Вы не можете редактировать свои сообщения
    Вы не можете удалять свои сообщения
    Вы не можете голосовать в опросах
    Вы не можете прикреплять файлы к сообщениям
    Вы можете скачивать файлы