Ссылка на приватное зеркало нашего сайта всего за 1$. Внимание количество ограничено!!!

2 сезон

iTunes

1 сезон

1

2 сезон

2 сезон

iTunes

1 сезон

RePack

30

Ultimate

ВАЖНО

ИГРА 18+

pack

RePack

MK11
pack

Забери бонус

RePack

jed

!!Акция!!

Alien_Rage

RePack

fifa19

RePack

Assassins Creed: Odyssey

RePack

NEED FOR SPEED™ PAYBACK

4 сезон

9 сезон

Бесстыжие 9 сезон

Все сериалы

все сериалы на PB.wtf

RePack

FAR CRY 5
  

Звездная травка / Star Leaf (Ричард Крэнор) [2015 г., ужасы, фантастика, триллер, HDRip, Любительский одноголосый Xixidok] pb.wtf

Звездная травка через торрент pb.wtf

Размер: 1.47 GB | Добавлен: 3 года 11 мес. назад | Торрент скачан:121 раз
Скачать  

29-12-2016 09:15 Звездная травка Скачать торрент  

Звездная травка / Star Leaf
Год выпуска: 2015
Страна: США / Titan Sky Entertainment
Жанр: ужасы, фантастика, триллер
Продолжительность: 01:15:43
Перевод: Любительский одноголосый Xixidok
Субтитры: English (внешние)

Режиссер: Ричард Крэнор

Премьера в мире: 6 июня 2015

rating

В ролях: Ричард Крэнор, Джулиан Хавиланес, Расселл Ходжкинсон, Роберт Лишок …

Описание: Туристы получают карту, где находится плантация внеземной марихуаны, которую охраняет злое существо из другого мира.Правило гласит, не фотографировать траву, не снимать на видео траву и не уносить её с собой. Траву можно только курить. И когда они нарушают все три правила, то сильно злят это существо..

Доп. информация: Присутствует реклама пельменей

Качество: HDRip
Формат: AVI
Видео кодек: XviD
Аудио кодек: MP3
Видео: XviD,2140 kbps, 720x400,23.976 fps
Аудио#1: Русский: MP3, 2 ch,192 Kb/s, 44.1 KHz
Аудио#2: English: AC3, 6 ch, 448 Kb/s,48.0 KHz



General
Complete name : H:\релизы.торрентфайл\Star Leaf (2015) HDRip\Star Leaf (2015) HDRip.avi
Format : AVI
Format/Info : Audio Video Interleave
Format profile : OpenDML
Format settings : rec
File size : 1.47 GiB
Duration : 1h 15mn
Overall bit rate : 2 786 Kbps
Writing application : AVI-Mux GUI 1.17.8.3, Feb 16 201019:42:50

Video
ID : 0
Format : MPEG-4 Visual
Format profile : Advanced Simple@L5
Format settings, BVOP : 2
Format settings, QPel : No
Format settings, GMC : No warppoints
Format settings, Matrix : Default (H.263)
Muxing mode : Packed bitstream
Codec ID : XVID
Codec ID/Hint : XviD
Duration : 1h 15mn
Bit rate : 2 140 Kbps
Width : 720 pixels
Height : 400 pixels
Display aspect ratio : 16:9
Frame rate : 23.976 fps
Color space : YUV
Chroma subsampling : 4:2:0
Bit depth : 8 bits
Scan type : Progressive
Compression mode : Lossy
Bits/(Pixel*Frame) : 0.310
Stream size : 1.13 GiB (77%)
Writing library : XviD 66

Audio #1
ID : 1
Format : MPEG Audio
Format version : Version 1
Format profile : Layer 3
Codec ID : 55
Codec ID/Hint : MP3
Duration : 1h 15mn
Bit rate mode : Constant
Bit rate : 192 Kbps
Channel(s) : 2 channels
Sampling rate : 44.1 KHz
Compression mode : Lossy
Stream size : 104 MiB (7%)
Alignment : Aligned on interleaves
Interleave, duration : 340 ms (8.14 video frames)
Interleave, preload duration : 209 ms

Audio #2
ID : 2
Format : AC-3
Format/Info : Audio Coding 3
Mode extension : CM (complete main)
Format settings, Endianness : Big
Codec ID : 2000
Duration : 1h 15mn
Bit rate mode : Constant
Bit rate : 448 Kbps
Channel(s) : 6 channels
Channel positions : Front: L C R, Side: L R, LFE
Sampling rate : 48.0 KHz
Bit depth : 16 bits
Compression mode : Lossy
Stream size : 243 MiB (16%)
Alignment : Aligned on interleaves
Interleave, duration : 64 ms (1.53 video frames)
Interleave, preload duration : 192 ms

pb.wtf



Скачать Звездная травка через торрент http://pic1.kartinco.top/images/11/juxfc.jpg Скачать фильм Звездная травка через торрент бесплантно в хорошем качестве Описание: Туристы получают карту, где находится плантация внеземной марихуаны, которую охраняет злое существо из другого мира.Правило ... 8.9 10 8
Info! Золотая раздача, скачанное не засчитывается.
Торрент: Зарегистрирован [2016-12-29 09:15] · скачан: 121 раз
Статус: T временная
Размер: 1.47 GB
Как cкачать? Как скачать Звездная травка через торрент | qTorrent

28-11-2019 20:33  

Отключить всю рекламу на сайте

29-12-2016 09:53 Звездная травка Скачать торрент  

..."Траву можно только курить.")))pb.wtf



29-12-2016 10:13 Звездная травка Скачать торрент  

ШТА? pb.wtf



29-12-2016 10:15 Звездная травка Скачать торрент  

Жанр: ужасы, фантастика, триллер....наверное забыли добавить-комедия

unclear nick писал(а):

..."Траву можно только курить.")))

pb.wtf



29-12-2016 10:40 Звездная травка Скачать торрент  

Кто смотрел?pb.wtf



29-12-2016 19:56 Звездная травка Скачать торрент  

Для кого снимают такие фильмы?pb.wtf



29-12-2016 20:33 Звездная травка Скачать торрент  

в фильме про траву присутствует реклама пельменей ))pb.wtf



29-12-2016 20:38 Звездная травка Скачать торрент  

LNR писал(а):

в фильме про траву присутствует реклама пельменей ))

Ну а что, покурили, на хавчик пробило - а тут пельмеши pb.wtf



29-12-2016 21:33 Звездная травка Скачать торрент  

Длительность 1.15...по ходу их точно накрыло и дальше не снимали)pb.wtf



30-12-2016 04:24 Звездная травка Скачать торрент  

Ахаххаах глянуть надо ! xD Думаю это НеЧтОpb.wtf



30-12-2016 10:29 Звездная травка Скачать торрент  

Цитата:

И когда они нарушают все три правила, то сильно злят это существо..

Этакие санкции от существа Обамы в марихуановой интерпретации.pb.wtf



30-12-2016 13:31 Звездная травка Скачать торрент  

Похоже, чтобы понять этот фильм, нужно покурить эту самую внеземную марихуану... pb.wtf



06-01-2017 19:20 Звездная травка Скачать торрент  

Что за херня такая ?...ща под водку заценю....хотя и хорошее есть.. ;-)pb.wtf



    Дорогой пользователь! Огромная просьба, поблагодарите релизера, оцените раздачу и оставьте свои комментарий, если Вы скачали Звездная травка через торрент бесплатно! Внесите свою лепту в развитие PiratBit!
    Комментировать посты могут только пользователи прошедшие не сложную регистрацию
    Показать сообщения:    

    Звездная травка через торрент
    Скачать бесплатно Звездная травка
    Звездная травка скачать торрент
    Звездная травка смотреть онлайн
    Cкачать фильм Звездная травка бесплатно
    Звездная травка скачать торрент в хорошем качестве
    Звездная травка смотреть онлайн бесплатно в хорошем качестве


    Вы не можете начинать темы
    Вы не можете отвечать на сообщения
    Вы не можете редактировать свои сообщения
    Вы не можете удалять свои сообщения
    Вы не можете голосовать в опросах
    Вы не можете прикреплять файлы к сообщениям
    Вы можете скачивать файлы