Всегда рабочее зеркало без VPN и Proxy просто перед .vidak.icu напиши любое слово или цифру, Пример http://892a.vidak.icu

Лицензия

MVO

1 сезон

1

1 сезон

iTunes

1 сезон

13

1 сезон

Deluxe

pack

Рекомендуем

Repack

30

ВАЖНО

RePack

MK11

RePack

jed

RePack

fifa19

RePack

RDR2

RePack

NEED FOR SPEED™ PAYBACK

Кинопоиск HD

6 сезон

 Острые козырьки 6 сезон

Все сериалы

все сериалы на PB.wtf

RePack

FAR CRY 5
  
Magnet ссылка

Клад (Ирина Волкова) [2015 г., Приключения, семейный, WEB-DLRip] pb.wtf

Клад через торрент pb.wtf

Размер: 748 MB | Добавлен: 5 лет 7 мес. назад | Торрент скачан:62 раза
Смотреть онлайн Клад | Скачать    Ребята, помогите собрать деньги на оплату серверов!!!

30-12-2016 13:04 Клад Скачать торрент  

Клад
Год выпуска: 2015
Страна: Россия
Жанр: Приключения, семейный
Продолжительность: 01:35:47
Субтитры: нет

Режиссер: Ирина Волкова



В ролях: Руслан Щедрин, Ефросиния Кушнир, Евгений Стычкин, Артем Жимо, Наталья Коляканова, Ольга Сутулова, Максим Литовченко, Владимир Капустин, Алексей Юдников, Ольга Кавалай-Аксёнова...

Описание: Смышленый любопытный мальчик Гоша из маленького городка вместе с московской подругой Катей разгадывает загадку ограбления краеведческого музея. Украденный из музея медальон является ключом к сокровищам, которые, согласно легенде, были спрятаны Белым Рыцарем. По странному стечению обстоятельств, незадолго до ограбления музея в городе появляется бродячий цирк.

Качество: WEB-DLRip
Формат: AVI
Видео кодек: XviD
Аудио кодек: МР3
Видео: 640x272 (2.35:1), 25 fps, XviD build 73 ~953 kbps avg, 0.22 bit/pixel
Аудио#1: 48 kHz, MPEG Layer 3, 2 ch, ~128.00 kbps avg
Общее
Полное имя : F:\Klad.2015.WEB-DLRip.740.[Один 777].avi
Формат : AVI
Формат/Информация : Audio Video Interleave
Размер файла : 748 Мбайт
Продолжительность : 1 ч. 35 м.
Общий поток : 1091 Кбит/сек
Программа кодирования : VirtualDubMod 1.5.10.3 | www.virtualdub-fr.org || (build 2550/release)
Библиотека кодирования : VirtualDubMod build 2550/release

Видео
Идентификатор : 0
Формат : MPEG-4 Visual
Профиль формата : Advanced [email protected]
Параметр BVOP формата : 1
Параметр QPel формата : Нет
Параметр GMC формата : Без точки перехода
Параметр матрицы формата : Default (H.263)
Идентификатор кодека : XVID
Идентификатор кодека/Подсказка : XviD
Продолжительность : 1 ч. 35 м.
Битрейт : 954 Кбит/сек
Ширина : 640 пикселей
Высота : 272 пикселя
Соотношение сторон : 2,35:1
Частота кадров : 25,000 кадров/сек
Цветовое пространство : YUV
Субдискретизация насыщенности : 4:2:0
Битовая глубина : 8 бит
Тип развёртки : Прогрессивная
Метод сжатия : С потерями
Бит/(Пиксели*Кадры) : 0.219
Размер потока : 653 Мбайт (87%)
Библиотека кодирования : XviD 73

Аудио
Идентификатор : 1
Формат : MPEG Audio
Версия формата : Version 1
Профиль формата : Layer 3
Идентификатор кодека : 55
Идентификатор кодека/Подсказка : MP3
Продолжительность : 1 ч. 35 м.
Вид битрейта : Постоянный
Битрейт : 128 Кбит/сек
Каналы : 2 канала
Частота : 48,0 КГц
Метод сжатия : С потерями
Размер потока : 87,7 Мбайт (12%)
Выравнивание : Соединение по промежуткам
Продолжительность промежутка : 40 мс. (1,00 видеокадр)
Время предзагрузки промежутка : 504 мс.
Библиотека кодирования : LAME3.99r
Настройки программы : -m s -V 4 -q 2 -lowpass 17 -b 128
pb.wtf



Скачать Клад через торрент http://i3.imageban.ru/out/2016/12/30/5b56fbe95c5816a2d6fe1dd0d454d2c0.jpg Скачать, смотреть онлайн Клад бесплантно в хорошем качестве Описание: Смышленый любопытный мальчик Гоша из маленького городка вместе с московской подругой Катей разгадывает загадку ограбления ... 10 10 5
Info! Золотая раздача, скачанное не засчитывается.
Торрент: Зарегистрирован [2016-12-30 13:04] · скачан: 62 раз
Статус: √ проверено
Размер: 748 MB
Как cкачать? Как скачать Клад через торрент | UTorrent

% Раздел Тема Автор DL S | L
Фильмы 2021 [DVDrip, WEB-DLRip, HDrip] (DUB, MVO) [ 1.87 GB ] Резня на кладбище / Burial Ground Massacre [2021 WEB-DLRip-AVC] MVO [Кипарис] от ExKinoRay Lithuania Скачать
1 | 0
Фильмы 2021 [DVDrip, WEB-DLRip, HDrip] (DUB, MVO) [ 1.87 GB ] Резня на кладбище / Burial Ground Massacre / Jungle Room [2021 WEB-DLRip-AVC] MVO [Кипарис] bober100 Скачать
1 | 0
Фильмы 2021 [DVDrip, WEB-DLRip, HDrip] (DUB, MVO) [ 1.46 GB ] Резня на кладбище / Burial Ground Massacre / Jungle Room [2021 WEB-DLRip] MVO [Кипарис] bober100 Скачать
1 | 0
Рок, Панк, Альтернатива (mp3) [ 64 MB ] Влом! - Такие Расклады 2021 / MP3 / 320 kbps / Punk-Rock Скорпион1976 Скачать
2 | 0
Фантастика [ 927 MB ] Вадим Булаев - «Про Иванова Швеца и прикладную бесологию» 1.| Про Иванова Швеца и прикладную бесологию. [Николай Волков 2021 192 kbps MP3] urapavel Скачать
1 | 0
Разное [ 448 MB ] Шляхов Андрей - Прикладная венерология [Сергей Уделов 2021 128 kbps MP3] bober100 Скачать
1 | 0
Книги [ 3 MB ] Сэм Хорн - Однажды – значит никогда. Как перестать откладывать мечты на потом [2020 fb2] urapavel Скачать
1 | 0

28-11-2019 20:33  

Отключить вcю реклaмy на сайте

    Дорогой пользователь! Огромная просьба, поблагодарите релизера, оцените раздачу и оставьте свои комментарий, если Вы скачали Клад через торрент бесплатно!
    Комментировать посты могут только пользователи прошедшие не сложную регистрацию
    Показать сообщения:    

    Клад через торрент
    Скачать бесплатно Клад
    Клад скачать торрент
    Клад смотреть онлайн
    Cкачать фильм Клад бесплатно
    Клад скачать торрент в хорошем качестве
    Клад смотреть онлайн бесплатно в хорошем качестве


    Вы не можете начинать темы
    Вы не можете отвечать на сообщения
    Вы не можете редактировать свои сообщения
    Вы не можете удалять свои сообщения
    Вы не можете голосовать в опросах
    Вы не можете прикреплять файлы к сообщениям
    Вы можете скачивать файлы