новый адрес
Ссылка на приватное зеркало всего за 1$. Внимание количество ограничено!!!

iTunes

1+1

iTunes

мы

iTunes

1

iTunes

Чернобыль

iTunes

Ральф против интернета

Лицензия

ПШазам

Лицензия

Оно 2

Лицензия

30
pack

Вам бонус

ВАЖНО

!!Акция!!

Alien_RageХит недели

RePack

Resident Evil 21

ИГРА 18+

pack

RePack

jed

!!Акция!!

Alien_Rage

RePack

fifa19

RePack

Assassins Creed: Odyssey

RePack

NEED FOR SPEED™ PAYBACK

3 сезон

9 сезон

Бесстыжие 9 сезон

Все сериалы

все сериалы на PB.wtf

RePack

FAR CRY 5
Ребята, катастрофически не хватает 1900р. для оплаты серверов за Октябрь (всвязи с блокировками трафик упал в 3 раза), 1-2р., выручайте.
  

Крампус: Дьявол возвращается / Krampus: The Devil Returns (Джейсон Халл) [2016 г., ужасы, боевик, триллер, HDRip, Любительский одноголосый Xixidok] pb.wtf

Крампус: Дьявол возвращается через торрент pb.wtf

Размер: 1.4 GB | Добавлен: 2 года 10 мес. назад | Торрент скачан:60 раз
Скачать  

30-12-2016 13:47 Крампус: Дьявол возвращается Скачать торрент  

Крампус: Дьявол возвращается / Krampus: The Devil Returns
Год выпуска: 2016
Страна: США / Snowdog Studio
Жанр: ужасы, боевик, триллер
Продолжительность: 01:19:57
Перевод: Любительский одноголосый Xixidok
Субтитры: English (внешние)

Режиссер: Джейсон Халл

Бюджет: $1 200 000
Премьера в мире: 4 октября 2016

rating

В ролях: Шон С. Филлипс, Р.Э. Михайлофф, Меланта Блекторн, Ричард Готери, Дэниэл Джеймс, Джейсон Халл, А.Дж. Лесли, Тиффани Фест…

Описание: Через пять лет после убийства жены и исчезновения дочери, бывший офицер полиции Джереми Даффин возвращается, чтобы помочь в охоте на монстра, который наказывает плохих детей.

Доп. информация: Присутствует реклама пельменя и кинотеатра.

Качество: HDRip
Формат: AVI
Видео кодек: XviD
Аудио кодек: AC3
Видео: XviD, 1846 Kb/s, 720x352,23.976 fps
Аудио#1: Russian: AC3, 2 ch ,192 Kbs, 44.1 KHz
Аудио#2: English: AC3,6 ch, 448 Kbs ,48.0 KHz



General
Complete name : H:\релизы.торрентфайл\Krampus The Devil Returns (2016) HDRip\Krampus.The.Christmas.Devil.Returns.2016.HDRip.avi
Format : AVI
Format/Info : Audio Video Interleave
Format profile : OpenDML
File size : 1.40 GiB
Duration : 1h 19mn
Overall bit rate : 2 505 Kbps
Movie name : Rip by basma4i
Writing application : XviD4PSP 6.0 / 54.29.105

Video
ID : 0
Format : MPEG-4 Visual
Format profile : Advanced Simple@L5
Format settings, BVOP : 1
Format settings, QPel : No
Format settings, GMC : No warppoints
Format settings, Matrix : Default (H.263)
Codec ID : XVID
Codec ID/Hint : XviD
Duration : 1h 19mn
Bit rate : 1 846 Kbps
Width : 720 pixels
Height : 352 pixels
Display aspect ratio : 2.034
Frame rate : 23.976 fps
Color space : YUV
Chroma subsampling : 4:2:0
Bit depth : 8 bits
Scan type : Progressive
Compression mode : Lossy
Bits/(Pixel*Frame) : 0.304
Stream size : 1.03 GiB (74%)
Writing library : XviD 64

Audio #1
ID : 1
Format : AC-3
Format/Info : Audio Coding 3
Mode extension : CM (complete main)
Format settings, Endianness : Big
Codec ID : 2000
Duration : 1h 19mn
Bit rate mode : Constant
Bit rate : 192 Kbps
Channel(s) : 2 channels
Channel positions : Front: L R
Sampling rate : 44.1 KHz
Bit depth : 16 bits
Compression mode : Lossy
Stream size : 110 MiB (8%)
Alignment : Aligned on interleaves
Interleave, duration : 35 ms (0.84 video frame)
Title : xixidok

Audio #2
ID : 2
Format : AC-3
Format/Info : Audio Coding 3
Mode extension : CM (complete main)
Format settings, Endianness : Big
Codec ID : 2000
Duration : 1h 19mn
Bit rate mode : Constant
Bit rate : 448 Kbps
Channel(s) : 6 channels
Channel positions : Front: L C R, Side: L R, LFE
Sampling rate : 48.0 KHz
Bit depth : 16 bits
Compression mode : Lossy
Stream size : 256 MiB (18%)
Alignment : Aligned on interleaves
Interleave, duration : 32 ms (0.77 video frame)

pb.wtf



Скачать Крампус: Дьявол возвращается через торрент http://pic1.kartinco.top/images/11/hq37d.jpg Скачать фильм Крампус: Дьявол возвращается через торрент бесплантно в хорошем качестве Описание: Через пять лет после убийства жены и исчезновения дочери, бывший офицер полиции Джереми Даффин возвращается, чтобы помочь в охоте ... 7.4 10 7
Торрент: Зарегистрирован [2016-12-30 13:47] · скачан: 60 раз
Статус: T временная
Размер: 1.4 GB
Как cкачать? Как скачать Крампус: Дьявол возвращается через торрент | qTorrent

% Раздел Тема Автор DL S | L
T Фильмы 2016 (Звук TS, Cam, VO, DVO) [ 748 MB ] Крампус: Дьявол возвращается / Krampus: The Devil Returns [2016 HDRip] / Любительский [Хихикающий доктор] Sherif Скачать
1 | 0


>> Переходим по ссылке <<
Автоматически подгузится скрипт который настроит ваш браузер на выигрыш!!
После настройки браузера вероятность выигрыша увеличется в 4.1-4,6 раза.
В течение 6 секунд вам откроется настроенный интерфейс казино, с повышенной вероятностью выигрыша.






Отзывы и комментарии о схеме читаем и пишем здесь: ---> Отзывы и комментарии о схеме

Новые благодарочки в телеграм довольных пользователей:
скриншот   скриншот   скриншот   скриншот   скриншот

30-12-2016 13:56 Крампус: Дьявол возвращается Скачать торрент  

повтор или нет.если да.удалите пожалуйста,не заметил эту - Крампус: Дьявол возвращается / Krampus: The Devil Returns pb.wtf
KВорон писал(а):

На все релизы в разделе [Релизы по Парсеру [Фильмы, Игры, Сериалы и другое...] независимо от оформления, будет ставиться статус "Временно" и раздачи переноситься в основные разделы трекера не будут!!!
При появлении в основных разделах трекера аналогичных по содержанию и качеству релизов, или релизов лучшего качества, оформленных в полном соответствии с Правилами, раздачи оформленные через парсер будут поглощаться.



30-12-2016 14:17 Крампус: Дьявол возвращается Скачать торрент  

ниже рейтинга не видалpb.wtf



30-12-2016 14:59 Крампус: Дьявол возвращается Скачать торрент  

Наказывает ПЛОХИХ детей, именно плохих, а не всех подряд. Так в чём проблема то?pb.wtf



30-12-2016 15:16 Крампус: Дьявол возвращается Скачать торрент  

Конвейер Г.... nopb.wtf



30-12-2016 17:04 Крампус: Дьявол возвращается Скачать торрент  

трэшфагам смотреть обязательно. новенький "Фантазм" эта отрыжка не обошла, но свою нишу заняла.pb.wtf



    Дорогой пользователь! Огромная просьба, поблагодарите релизера, оцените раздачу и оставьте свои комментарий, если Вы скачали Крампус: Дьявол возвращается через торрент бесплатно! Внесите свою лепту в развитие PiratBit!
    Комментировать посты могут только пользователи прошедшие не сложную регистрацию
    Показать сообщения:    

    Крампус: Дьявол возвращается через торрент
    Скачать бесплатно Крампус: Дьявол возвращается
    Крампус: Дьявол возвращается скачать торрент
    Крампус: Дьявол возвращается смотреть онлайн
    Cкачать фильм Крампус: Дьявол возвращается бесплатно
    Крампус: Дьявол возвращается скачать торрент в хорошем качестве
    Крампус: Дьявол возвращается смотреть онлайн бесплатно в хорошем качестве


    Вы не можете начинать темы
    Вы не можете отвечать на сообщения
    Вы не можете редактировать свои сообщения
    Вы не можете удалять свои сообщения
    Вы не можете голосовать в опросах
    Вы не можете прикреплять файлы к сообщениям
    Вы можете скачивать файлы