Ссылка на приватное зеркало нашего сайта всего за 1$. Внимание количество ограничено!!!

2 сезон

iTunes

1 сезон

1

iTunes

iTunes

iTunes

1 сезон

RePack

30

ИГРА 18+

pack

ВАЖНО

!!Акция!!

Alien_RageХит недели

RePack

MK11
pack

Забери бонус

RePack

jed

!!Акция!!

Alien_Rage

RePack

fifa19

RePack

Assassins Creed: Odyssey

RePack

NEED FOR SPEED™ PAYBACK

4 сезон

9 сезон

Бесстыжие 9 сезон

Все сериалы

все сериалы на PB.wtf

RePack

FAR CRY 5
  

Великолепная семерка / The Magnificent Seven (Антуан Фукуа ) [2016, боевик, приключения, вестерн, BDRip 720p от potroks] DUB, AVO, L1 pb.wtf

Великолепная семерка через торрент pb.wtf

Размер: 7.96 GB | Добавлен: 3 года 9 мес. назад | Торрент скачан:811 раз
Скачать  

30-12-2016 15:00 Великолепная семерка Скачать торрент  

Великолепная семерка / The Magnificent Seven

Год выпуска: 2016
Страна: США / Columbia Pictures....
Жанр: боевик, приключения, вестерн
Продолжительность: 02:12:50
Перевод: Дубляж [Blu-ray CEE], авторский (одноголосый), любительский одноголосый
Субтитры: русские (полные + форс.), английские (Full + SDH + SDH-Colored)
Навигация по главам: есть

Режиссер: Антуан Фукуа
В ролях:

Дензел Вашингтон (Chisolm), Крис Пратт (Josh Faraday), Итан Хоук (Goodnight Robicheaux), Винсент Д’Онофрио (Jack Horne), Ли Бён-хон (Billy Rocks), Мануэль Рульфо (Vasquez), Мартин Сенсмейер (Red Harvest), Хейли Беннетт (Emma Cullen), Питер Сарсгаард (Bartholomew Bogue), Люк Граймс (Teddy Q), Мэтт Бомер (Matthew Cullen), Джонатан Джосс (Denali)

Описание: Семеро отважных искателей приключений встают на защиту жителей маленького городка, угнетаемого бандой грабителей.


Качество: BDRip 720p
Формат: MKV
Видео: AVC, 1280x534 (2.40:1), 6846 kbps, 23,976 fps, 0,418 bpp
Аудио №1: AC3 / 5.1 / 48 kHz / 384 kbps / 16 bit | DUB - Blu-ray CEE
Аудио №2: AC3 / 5.1 / 48 kHz / 448 kbps / 16 bit | AVO - Д.Есарев
Аудио №3: AC3 / 5.1 / 48 kHz / 448 kbps / 16 bit | VO - Solod
Аудио №4: AC3 / 5.1 / 48 kHz / 448 kbps / 16 bit | ENG
General
Unique ID : 236070118903153079227333619022015650000 (0xB199737B18E03DE48BA7E469D39A58D0)
Complete name : D:\Velikolepnaya.Semerka.2016.3xRus.Eng.BDRip.x264.-HELLYWOOD.mkv
Format : Matroska
Format version : Version 4 / Version 2
File size : 7.96 GiB
Duration : 2 h 12 min
Overall bit rate : 8 577 kb/s
Movie name : The Magnificent Seven (2016)
Encoded date : UTC 2016-12-30 14:30:40
Writing application : mkvmerge v5.9.0 ('On The Loose') built on Dec 15 2012 16:39:58
Writing library : libebml v1.3.0 + libmatroska v1.4.0

Video
ID : 1
Format : AVC
Format/Info : Advanced Video Codec
Format profile : High@L4.1
Format settings, CABAC : Yes
Format settings, ReFrames : 9 frames
Codec ID : V_MPEG4/ISO/AVC
Duration : 2 h 12 min
Bit rate : 6 846 kb/s
Width : 1 280 pixels
Height : 534 pixels
Display aspect ratio : 2.40:1
Frame rate mode : Constant
Frame rate : 23.976 FPS
Color space : YUV
Chroma subsampling : 4:2:0
Bit depth : 8 bits
Scan type : Progressive
Bits/(Pixel*Frame) : 0.418
Stream size : 6.20 GiB (78%)
Title : potroks
Writing library : x264 core 146 r2538 121396c
Encoding settings : cabac=1 / ref=9 / deblock=1:-3:-3 / analyse=0x3:0x113 / me=umh / subme=11 / psy=1 / psy_rd=1.00:0.05 / mixed_ref=1 / me_range=48 / chroma_me=1 / trellis=2 / 8x8dct=1 / cqm=0 / deadzone=21,11 / fast_pskip=0 / chroma_qp_offset=-3 / threads=9 / lookahead_threads=2 / sliced_threads=0 / nr=0 / decimate=0 / interlaced=0 / bluray_compat=0 / constrained_intra=0 / bframes=11 / b_pyramid=2 / b_adapt=2 / b_bias=0 / direct=3 / weightb=1 / open_gop=0 / weightp=2 / keyint=240 / keyint_min=23 / scenecut=40 / intra_refresh=0 / rc_lookahead=60 / rc=2pass / mbtree=0 / bitrate=6846 / ratetol=1.0 / qcomp=0.70 / qpmin=0 / qpmax=69 / qpstep=4 / cplxblur=20.0 / qblur=0.5 / vbv_maxrate=14000 / vbv_bufsize=14000 / nal_hrd=none / filler=0 / ip_ratio=1.40 / pb_ratio=1.30 / aq=1:0.80
Language : English
Default : Yes
Forced : No

Audio #1
ID : 2
Format : AC-3
Format/Info : Audio Coding 3
Mode extension : CM (complete main)
Format settings, Endianness : Big
Codec ID : A_AC3
Duration : 2 h 12 min
Bit rate mode : Constant
Bit rate : 384 kb/s
Channel(s) : 6 channels
Channel positions : Front: L C R, Side: L R, LFE
Sampling rate : 48.0 kHz
Frame rate : 31.250 FPS (1536 spf)
Compression mode : Lossy
Stream size : 365 MiB (4%)
Title : Dub | DD 5.1 @ 384 kbps - Blu-ray CEE
Language : Russian
Default : Yes
Forced : No

Audio #2
ID : 3
Format : AC-3
Format/Info : Audio Coding 3
Mode extension : CM (complete main)
Format settings, Endianness : Big
Codec ID : A_AC3
Duration : 2 h 12 min
Bit rate mode : Constant
Bit rate : 448 kb/s
Channel(s) : 6 channels
Channel positions : Front: L C R, Side: L R, LFE
Sampling rate : 48.0 kHz
Frame rate : 31.250 FPS (1536 spf)
Compression mode : Lossy
Stream size : 426 MiB (5%)
Title : AVO | DD 5.1 @ 448 kbps - D.Yesarev
Language : Russian
Default : No
Forced : No

Audio #3
ID : 4
Format : AC-3
Format/Info : Audio Coding 3
Mode extension : CM (complete main)
Format settings, Endianness : Big
Codec ID : A_AC3
Duration : 2 h 12 min
Bit rate mode : Constant
Bit rate : 448 kb/s
Channel(s) : 6 channels
Channel positions : Front: L C R, Side: L R, LFE
Sampling rate : 48.0 kHz
Frame rate : 31.250 FPS (1536 spf)
Compression mode : Lossy
Stream size : 426 MiB (5%)
Title : VO | DD 5.1 @ 448 kbps - Solod
Language : Russian
Default : No
Forced : No

Audio #4
ID : 5
Format : AC-3
Format/Info : Audio Coding 3
Mode extension : CM (complete main)
Format settings, Endianness : Big
Codec ID : A_AC3
Duration : 2 h 12 min
Bit rate mode : Constant
Bit rate : 448 kb/s
Channel(s) : 6 channels
Channel positions : Front: L C R, Side: L R, LFE
Sampling rate : 48.0 kHz
Frame rate : 31.250 FPS (1536 spf)
Compression mode : Lossy
Stream size : 426 MiB (5%)
Title : Original | DD 5.1 @ 448 kbps
Language : English
Default : No
Forced : No

Text #1
ID : 6
Format : UTF-8
Codec ID : S_TEXT/UTF8
Codec ID/Info : UTF-8 Plain Text
Title : Forced
Language : Russian
Default : Yes
Forced : No

Text #2
ID : 7
Format : UTF-8
Codec ID : S_TEXT/UTF8
Codec ID/Info : UTF-8 Plain Text
Title : Blu-ray CEE
Language : Russian
Default : No
Forced : No

Text #3
ID : 8
Format : UTF-8
Codec ID : S_TEXT/UTF8
Codec ID/Info : UTF-8 Plain Text
Title : Full
Language : English
Default : No
Forced : No

Text #4
ID : 9
Format : UTF-8
Codec ID : S_TEXT/UTF8
Codec ID/Info : UTF-8 Plain Text
Title : SDH
Language : English
Default : No
Forced : No

Text #5
ID : 10
Format : UTF-8
Codec ID : S_TEXT/UTF8
Codec ID/Info : UTF-8 Plain Text
Title : SDH-Colored
Language : English
Default : No
Forced : No

Menu
00:00:00.000 : :Chapter 1
00:04:53.710 : :Chapter 2
00:11:28.187 : :Chapter 3
00:18:12.591 : :Chapter 4
00:25:17.850 : :Chapter 5
00:31:55.956 : :Chapter 6
00:36:53.795 : :Chapter 7
00:42:05.857 : :Chapter 8
00:50:23.520 : :Chapter 9
00:59:57.844 : :Chapter 10
01:06:49.631 : :Chapter 11
01:16:08.439 : :Chapter 12
01:23:25.792 : :Chapter 13
01:34:06.766 : :Chapter 14
01:44:19.712 : :Chapter 15
01:54:47.297 : :Chapter 16
pb.wtf



Скачать Великолепная семерка через торрент http://i88.fastpic.ru/big/2016/1230/ca/24bc65653f9991977587b2a003ace5ca.png Скачать фильм Великолепная семерка через торрент бесплантно в хорошем качестве Описание: Семеро отважных искателей приключений встают на защиту жителей маленького городка, угнетаемого бандой грабителей. ... 9.9 10 25
Info! Золотая раздача, скачанное не засчитывается.
Торрент: Зарегистрирован [2016-12-30 15:00] · скачан: 811 раз
Статус: √ проверено
Размер: 7.96 GB
Как cкачать? Как скачать Великолепная семерка через торрент | qTorrent

28-11-2019 20:33  

Отключить всю рекламу на сайте

    Дорогой пользователь! Огромная просьба, поблагодарите релизера, оцените раздачу и оставьте свои комментарий, если Вы скачали Великолепная семерка через торрент бесплатно! Внесите свою лепту в развитие PiratBit!
    Комментировать посты могут только пользователи прошедшие не сложную регистрацию
    Показать сообщения:    

    Великолепная семерка через торрент
    Скачать бесплатно Великолепная семерка
    Великолепная семерка скачать торрент
    Великолепная семерка смотреть онлайн
    Cкачать фильм Великолепная семерка бесплатно
    Великолепная семерка скачать торрент в хорошем качестве
    Великолепная семерка смотреть онлайн бесплатно в хорошем качестве


    Вы не можете начинать темы
    Вы не можете отвечать на сообщения
    Вы не можете редактировать свои сообщения
    Вы не можете удалять свои сообщения
    Вы не можете голосовать в опросах
    Вы не можете прикреплять файлы к сообщениям
    Вы можете скачивать файлы