новый адрес
Мега распродажа FORZA HORIZON 4 ULTIMATE+ВСЕ DLC+ОНЛАЙН всего за 499р. 349 руб. (супер цена). Внимание количество ограничено!!!

iTunes

1+1

iTunes

мы

iTunes

1

iTunes

Чернобыль

iTunes

Ральф против интернета

Лицензия

ПШазам

Лицензия

Игра престолов

Лицензия

30
pack

ВАЖНО

!!Акция!!

Alien_RageХит недели

RePack

Resident Evil 21

ИГРА 18+

pack

RePack

Metro:Exodus

!!Акция!!

Alien_Rage

RePack

fifa19

RePack

Assassins Creed: Odyssey

RePack

NEED FOR SPEED™ PAYBACK

3 сезон

9 сезон

Бесстыжие 9 сезон

Все сериалы

все сериалы на PB.wtf

RePack

FAR CRY 5
Ребята, катастрофически не хватает 1900р. для оплаты серверов за Октябрь (всвязи с блокировками трафик упал в 3 раза), 1-2р., выручайте.
  

Солдаты (Александр Иванов) [1956, СССР, драма, военный, DVDRip от AVP Studio] pb.wtf

Солдаты через торрент pb.wtf

Размер: 745 MB | Добавлен: 2 года 10 мес. назад | Торрент скачан:17 раз
Скачать  

30-12-2016 15:46 Солдаты Скачать торрент  

Солдаты
Страна: СССР
Производство: Ленфильм

Жанр: драма, военный
Год выпуска: 1956
Продолжительность: 01:40:06

Перевод: Не требуется
Cубтитры: нет
Оригинальная аудиодорожка: русский

Режиссер: Александр Иванов

В ролях:
Всеволод Сафонов, Леонид Кмит, Тамара Логинова, Владислав Ковальков, Михаил Ладыгин, Людмила Маркелия, Николай Погодин, Иннокентий Смоктуновский, Юрий Соловьёв, Евгений Тетерин, Борис Ильясов, Герман Хованов...
Полный список актёров

Описание:
Июль 1942 года. Лейтенант Керженцев, его связной Валега и полковой разведчик Седых вместе с отступающими частями нашей армии идут мимо украинских деревень к Сталинграду, где уже формируются новые части...

Источник: DVD5 R5
Качество видео: DVDRip
Формат видео: AVI

Видео: 576x432 (4:3), 25 fps, XviD ~ 903 kbps avg, 0.145 bit/pixel
Аудио: 48 kHz, MP3 2.0, 128 kbps

Раздача от:
Общее
Полное имя : Soldaty.1956.DVDRip-745_[New-team]_by_AVP_Studio.avi
Формат : AVI
Формат/Информация : Audio Video Interleave
Размер файла : 745 Мбайт
Продолжительность : 1 ч. 40 м.
Общий поток : 1041 Кбит/сек
Программа кодирования : VirtualDubMod 1.5.10.3 | www.virtualdub-fr.org || (build 2550/release)
Библиотека кодирования : VirtualDubMod build 2550/release

Видео
Идентификатор : 0
Формат : MPEG-4 Visual
Профиль формата : Advanced Simple@L5
Параметр BVOP формата : 1
Параметр QPel формата : Нет
Параметр GMC формата : Без точки перехода
Параметр матрицы формата : Выборочная
Идентификатор кодека : XVID
Идентификатор кодека/Подсказка : XviD
Продолжительность : 1 ч. 40 м.
Битрейт : 903 Кбит/сек
Ширина : 576 пикселей
Высота : 432 пикселя
Соотношение сторон : 4:3
Частота кадров : 25,000 кадров/сек
Цветовое пространство : YUV
Субдискретизация насыщенности : 4:2:0
Битовая глубина : 8 бит
Тип развёртки : Прогрессивная
Метод сжатия : С потерями
Бит/(Пиксели*Кадры) : 0.145
Размер потока : 647 Мбайт (87%)
Библиотека кодирования : XviD 73

Аудио
Идентификатор : 1
Формат : MPEG Audio
Версия формата : Version 1
Профиль формата : Layer 3
Идентификатор кодека : 55
Идентификатор кодека/Подсказка : MP3
Продолжительность : 1 ч. 40 м.
Вид битрейта : Постоянный
Битрейт : 128 Кбит/сек
Каналы : 2 канала
Частота : 48,0 КГц
Метод сжатия : С потерями
Размер потока : 91,7 Мбайт (12%)
Выравнивание : Соединение по промежуткам
Продолжительность промежутка : 40 мс. (1,00 видеокадр)
Время предзагрузки промежутка : 504 мс.
Библиотека кодирования : LAME3.99r
Настройки программы : -m s -V 4 -q 2 -lowpass 17 -b 128
pb.wtf



Скачать Солдаты через торрент http://s018.radikal.ru/i525/1612/e9/2182cd1c3deb.png Скачать фильм Солдаты через торрент бесплантно в хорошем качестве Описание:Июль 1942 года. Лейтенант Керженцев, его связной Валега и полковой разведчик Седых вместе с отступающими частями нашей армии идут ... 5 10 1
Info! Золотая раздача, скачанное не засчитывается.
Торрент: Зарегистрирован [2016-12-30 15:46] · скачан: 17 раз
Статус: √ проверено
Размер: 745 MB
Как cкачать? Как скачать Солдаты через торрент | qTorrent

% Раздел Тема Автор DL S | L
Наши сериалы [ 3.52 GB ] солдата Ивана Чонкина [2007 - анекдот DVDRip] hackee Скачать
1 | 0
Сборники и Сиквелы (48-60 fps) [ 42.81 GB ] Универсальный солдат: Квадрология / Universal Soldier: Quadrilogy [1992-2012 BDRip 1080p / 60 FPS Многоголосый закадровый] Tiberiumsun69 Скачать
1 | 0
Кино СССР [ 1.43 GB ] Аты-баты шли солдаты... [1976 военный DVDRip-AVC] Ворон Скачать
1 | 0
Фильмы 2012 [ 1.46 GB ] Солдаты удачи / Soldiers of Fortune [2012 HDRip DUB ] makarevich Скачать
1 | 0
Кино СССР [ 1.36 GB ] Аты-баты шли солдаты... [1976 военный DVDRip] Ворон Скачать
1 | 0
Детективы, Боевики, Триллеры [ 592 MB ] Таманцев Андрей - Солдаты удачи Пропавшие без вести [Виктор Че 2015 128 kbps MP3] Бумер Скачать
1 | 0
Фантастика [ 1.05 GB ] Станислав Сергеев - СОЛДАТЫ АРМАГЕДДОНА [Чайцын Александр 2012 192 kbps MP3] govoryn Скачать
1 | 0


>> Регистрируемся здесь <<






Отзывы и комментарии о схеме читаем и пишем здесь: ---> Отзывы и комментарии о схеме

Новые благодарочки в телеграм довольных пользователей:
скриншот   скриншот   скриншот   скриншот   скриншот
    Дорогой пользователь! Огромная просьба, поблагодарите релизера, оцените раздачу и оставьте свои комментарий, если Вы скачали Солдаты через торрент бесплатно! Внесите свою лепту в развитие PiratBit!
    Комментировать посты могут только пользователи прошедшие не сложную регистрацию
    Показать сообщения:    

    Солдаты через торрент
    Скачать бесплатно Солдаты
    Солдаты скачать торрент
    Солдаты смотреть онлайн
    Cкачать фильм Солдаты бесплатно
    Солдаты скачать торрент в хорошем качестве
    Солдаты смотреть онлайн бесплатно в хорошем качестве


    Вы не можете начинать темы
    Вы не можете отвечать на сообщения
    Вы не можете редактировать свои сообщения
    Вы не можете удалять свои сообщения
    Вы не можете голосовать в опросах
    Вы не можете прикреплять файлы к сообщениям
    Вы можете скачивать файлы