Ссылка на приватное зеркало нашего сайта всего за 1$. Внимание количество ограничено!!!

2 сезон

iTunes

1 сезон

1

2 сезон

2 сезон

iTunes

1 сезон

RePack

30

Ultimate

ВАЖНО

ИГРА 18+

pack

RePack

MK11
pack

Забери бонус

RePack

jed

!!Акция!!

Alien_Rage

RePack

fifa19

RePack

Assassins Creed: Odyssey

RePack

NEED FOR SPEED™ PAYBACK

4 сезон

9 сезон

Бесстыжие 9 сезон

Все сериалы

все сериалы на PB.wtf

RePack

FAR CRY 5
  

Класс / Class / Сезон: 1 / Серии 1-8 из 8 (Эдвард Базалгетт / Edward Bazalgette, Филиппа Лангдэйл / Philippa Langdale, Уэйн Йип / Wayne Yip) [2016 , Великобритания, фантастика, драма, BDRip-AVC] MVO [BaibaKo] pb.wtf

Класс через торрент pb.wtf

Размер: 6.73 GB | Добавлен: 3 года 3 мес. назад | Торрент скачан:8 раз
Скачать  

31-12-2016 02:10 Класс Скачать торрент  

Класс / Class


  • Год выпуска: 2016
  • Страна: Великобритания
  • Жанр: фантастика, драма
  • Продолжительность: 00:49:57 (Серия)
  • Перевод: Профессиональный многоголосый [BaibaKo]
  • Режиссер: Эдвард Базалгетт / Edward Bazalgette, Филиппа Лангдэйл / Philippa Langdale, Уэйн Йип / Wayne Yip
  • В ролях:

    Грег Остин (Charlie), Фейди Эльсайед (Ram), Софи Хопкинс (April), Вивиан Опара (Tanya), Кэтерин Келли (Ms. Quill), Джордан Ренцо (Matteusz), Аарон Нил (Varun), Пуки Куэснел (Dorothea), Бен Пил (Coach Dawson), Наташа Гордон (Vivian), Анна Шаффер (Rachel), Найджел Беттс (Mr. Armitage)


  • Британский научно-фантастический телесериал, спин-офф популярного сериала «Доктор Кто». События будут разворачиваться в современном Лондоне. Плацдармом для нового шоу станет школа Коал Хилл, известная поклонникам основного сериала. Здесь училась внучка Доктора Сьюзан Форман и преподавала спутница Одиннадцатого и Двенадцатого Докторов Клара Освальд. В Коал Хилл случилась битва между британскими вооруженными силами, учёными, Седьмым Доктором и силами имперских ренегатов-далеков. В новом проекте школа станет порталом, через который из разных точек времени и пространства в наш мир просачиваются тёмные силы.
    «Класс» стал пятым телевизионным спин-оффом «Доктора Кто» после сериалов «К-9 и компания», «Торчвуд», «Приключения Сары Джейн» и «К-9».
  • Рейтинг:



  • Качество: BDRip-AVC
  • Формат: :MPEG-4
  • Видео кодек: AVC
  • Аудио кодек: AC3
  • Видео: 2000 Кбит/сек, 1024*576 (16:9), в 25,000 кадров/сек, AVC
  • Аудио №1: русский 384 Кбит/сек, 48,0 КГц, 16 бит, 6 каналов, AC-3 |[BaibaKo]|
  • Аудио №2: английский 384 Кбит/сек, 48,0 КГц, 16 бит, 6 каналов, AC-3
  • Релиз от: GEKADOL

    Внимание! Раздача ведётся путём добавления новых серий; при каждом добавлении создаётся новый торрент. Чтобы начать докачку новой серии, пользователям необходимо сделать следующее:
    (1) остановить скачивание,
    (2) удалить старый торрент у себя из клиента (старые серии удалять не надо),
    (3) скачать новый торрент и запустить его у себя в клиенте вместо старого, при этом указать клиенту путь в старую папку куда и должно происходить скачивание новых серий.
    Ваш клиент при этом должен произвести хеширование (проверку) старой папки (если не производит сам - помогите ему сделать это), и будет докачивать только те серии которых у вас ещё нет. Старые серии при этом не удаляются, а продолжают раздаваться!
    Eсли вы уже удалили старые серии, то предотвратить повторную закачку старых серий можно, отжав галочку в соответствующих местах при запуске нового торрента. По возможности, желательно не удалять старые серии как можно дольше чтобы релизёр не столько продолжал раздавать старые серии, а смог сконцентрироваться на новых.

    Общее
    Полное имя : K:\Класс (Class 1)\Class.s01e02.BDRip-AVC.Rus.Eng.BaibaKo.tv.mp4
    Формат : MPEG-4
    Профиль формата : Base Media
    Идентификатор кодека : isom (isom/iso2/avc1/mp41)
    Размер файла : 857 Мбайт
    Продолжительность : 43 м. 10 с.
    Общий поток : 2776 Кбит/сек
    Программа кодирования : XviD4PSP 7.0.379 DAILY
    HDVideo : Yes
    encoding_info : MATROSKA / WEBM > MP4 Произвольный / H264 > X264 CBR 2000kbps HQ / DTS > AC3 CBR 384kbps / DTS > AC3 CBR 384kbps

    Видео
    Идентификатор : 1
    Формат : AVC
    Формат/Информация : Advanced Video Codec
    Профиль формата : High@L4.1
    Параметр CABAC формата : Да
    Параметр ReFrames формата : 4 кадра
    Идентификатор кодека : avc1
    Идентификатор кодека/Информация : Advanced Video Coding
    Продолжительность : 43 м. 10 с.
    Битрейт : 2000 Кбит/сек
    Ширина : 1024 пикселя
    Высота : 576 пикселей
    Соотношение сторон : 16:9
    Режим частоты кадров : Постоянный
    Частота кадров : 25,000 кадров/сек
    Цветовое пространство : YUV
    Субдискретизация насыщенности : 4:2:0
    Битовая глубина : 8 бит
    Тип развёртки : Прогрессивная
    Бит/(Пиксели*Кадры) : 0.136
    Размер потока : 619 Мбайт (72%)
    Библиотека кодирования : x264 core 148 r2762M 90a61ec
    Настройки программы : cabac=1 / ref=3 / deblock=1:-1:-1 / analyse=0x3:0x133 / me=hex / subme=7 / psy=1 / psy_rd=1.00:0.20 / mixed_ref=1 / me_range=16 / chroma_me=1 / trellis=1 / 8x8dct=1 / cqm=0 / deadzone=21,11 / fast_pskip=1 / chroma_qp_offset=-3 / threads=5 / lookahead_threads=1 / sliced_threads=0 / nr=0 / decimate=1 / interlaced=0 / bluray_compat=0 / constrained_intra=0 / bframes=3 / b_pyramid=2 / b_adapt=2 / b_bias=0 / direct=3 / weightb=1 / open_gop=0 / weightp=2 / keyint=250 / keyint_min=25 / scenecut=40 / intra_refresh=0 / rc_lookahead=40 / rc=cbr / mbtree=1 / bitrate=2000 / ratetol=1.0 / qcomp=0.60 / qpmin=0 / qpmax=69 / qpstep=4 / vbv_maxrate=2000 / vbv_bufsize=30000 / nal_hrd=none / filler=0 / ip_ratio=1.40 / aq=1:1.00

    Аудио #1
    Идентификатор : 2
    Формат : AC-3
    Формат/Информация : Audio Coding 3
    Расширение режима : CM (complete main)
    Параметр Endianness формата : Big
    Идентификатор кодека : ac-3
    Продолжительность : 43 м. 10 с.
    Вид битрейта : Постоянный
    Битрейт : 384 Кбит/сек
    Каналы : 6 каналов
    Расположение каналов : Front: L C R, Side: L R, LFE
    Частота : 48,0 КГц
    Частота кадров : 31,250 кадров/сек (1536 spf)
    Битовая глубина : 16 бит
    Метод сжатия : С потерями
    Размер потока : 119 Мбайт (14%)
    Язык : Russian
    Default : Да
    Alternate group : 1

    Аудио #2
    Идентификатор : 3
    Формат : AC-3
    Формат/Информация : Audio Coding 3
    Расширение режима : CM (complete main)
    Параметр Endianness формата : Big
    Идентификатор кодека : ac-3
    Продолжительность : 43 м. 10 с.
    Вид битрейта : Постоянный
    Битрейт : 384 Кбит/сек
    Каналы : 6 каналов
    Расположение каналов : Front: L C R, Side: L R, LFE
    Частота : 48,0 КГц
    Частота кадров : 31,250 кадров/сек (1536 spf)
    Битовая глубина : 16 бит
    Метод сжатия : С потерями
    Размер потока : 119 Мбайт (14%)
    Язык : English
    Default : Нет
    Alternate group : 1



    Скриншоты:
    скриншот   скриншот   скриншот   скриншот   скриншот   скриншот   скриншот  
    скриншот  

    Раздача ведётся путём добавления новых серий. Добавлена 7,8 серия (22.08.2017).Просьба перекачать торрент файл.

    pb.wtf



  • Скачать Класс через торрент http://i88.fastpic.ru/big/2016/1231/2e/946f7c4e0bff28b9e21c2bcbc681e42e.jpg Скачать фильм Класс через торрент бесплантно в хорошем качестве qw.png Британский научно-фантастический телесериал, спин-офф популярного сериала «Доктор Кто». События будут разворачиваться в ... 9.5 10 2
    Info! Золотая раздача, скачанное не засчитывается.
    Торрент: Зарегистрирован [2017-08-22 01:42] · скачан: 8 раз
    Статус: √ проверено
    Размер: 6.73 GB
    Как cкачать? Как скачать Класс через торрент | qTorrent

    % Раздел Тема Автор DL S | L
    Зарубежные сериалы [ 4.8 GB ] Класс / Class / Сезон 1 / Серии 1-8 из 8 [2016 BDRip] MVO [BaibaKo] bober100 Скачать
    1 | 0

    28-11-2019 20:33  

    Отключить всю рекламу на сайте

      Дорогой пользователь! Огромная просьба, поблагодарите релизера, оцените раздачу и оставьте свои комментарий, если Вы скачали Класс через торрент бесплатно! Внесите свою лепту в развитие PiratBit!
      Комментировать посты могут только пользователи прошедшие не сложную регистрацию
      Показать сообщения:    

      Класс через торрент
      Скачать бесплатно Класс
      Класс скачать торрент
      Класс смотреть онлайн
      Cкачать фильм Класс бесплатно
      Класс скачать торрент в хорошем качестве
      Класс смотреть онлайн бесплатно в хорошем качестве


      Вы не можете начинать темы
      Вы не можете отвечать на сообщения
      Вы не можете редактировать свои сообщения
      Вы не можете удалять свои сообщения
      Вы не можете голосовать в опросах
      Вы не можете прикреплять файлы к сообщениям
      Вы можете скачивать файлы