Ссылка на приватное зеркало нашего сайта всего за 1$. Внимание количество ограничено!!!

2 сезон

iTunes

1 сезон

1

iTunes

iTunes

iTunes

1 сезон

RePack

30

ИГРА 18+

pack

ВАЖНО

!!Акция!!

Alien_RageХит недели

RePack

MK11
pack

Забери бонус

RePack

jed

!!Акция!!

Alien_Rage

RePack

fifa19

RePack

Assassins Creed: Odyssey

RePack

NEED FOR SPEED™ PAYBACK

4 сезон

9 сезон

Бесстыжие 9 сезон

Все сериалы

все сериалы на PB.wtf

RePack

FAR CRY 5
  

С праздниками ничто не сравнится / Nothing Like the Holidays (Альфредо Родригес де Вилла ) [2008, драма, мелодрама, комедия, BDRip 720p от _denis_100 / NNNB] MVO + Original + Sub (Rus,Eng) pb.wtf

С праздниками ничто не сравнится через торрент pb.wtf

Размер: 4.58 GB | Добавлен: 3 года 9 мес. назад | Торрент скачан:70 раз
Скачать  

31-12-2016 12:32 С праздниками ничто не сравнится Скачать торрент  

С праздниками ничто не сравнится / Nothing Like the Holidays


Год выпуска: 2008
Страна: США
Жанр: драма, мелодрама, комедия
Продолжительность: 01:38:31
Перевод: Профессиональный многоголосый
Субтитры: русские, английские
Режиссер: Альфредо Родригес де Вилла
В ролях: Альфред Молина , Элизабет Пенья , Фредди Родригес , Луис Гусман , Джей Эрнандес , Джон Легуизамо , Дебра Мессинг , Ванесса Ферлито , Мелони Диас , Александр Баутиста , Рамсес Хименес , Мэнни Перес
Описание:
На рождественские каникулы в родовом поместье собирается вместе большая семья, чтобы подвести итоги уходящего года и вместе отметить праздник. Что и говорить, неделька им предстоит бурная и богатая на события. Они успеют обсудить последние новости, вспомнят свои традиции, услышат неожиданные признания своих родственников, успеют все перессориться, но, в конце концов, хорошее чувство юмора и немного рождественского волшебства помогут им преодолеть все обиды и еще больше сплотят их.

PG-13 - Детям до 13 лет просмотр не желателен
Качество: BDRip 720p
Контейнер (Расширение): MKV
Видео: 1280x544, 5695 Кбит/сек, 23,976 кадр/сек, 0,341 Бит/[Пиксели*Кадры]
Аудио №1: русский / AC3 / 2.0 / 48 kHz / 192 kbps / |Профессиональный многоголосый, R5|
Аудио №2: английский / AC3 / 5.1 / 48 kHz / 640 kbps /
Навигация по главам(Чаптеры): естьАвтор рипа: Сообщество:
Format : Matroska
Format version : Version 2
File size : 4.58 GiB
Duration : 1 h 38 min
Overall bit rate : 6 660 kb/s
Movie name : Nothing Like the Holidays.2008.BDRip.720p.[denis100]
Encoded date : UTC 2016-12-31 12:08:50
Writing application : mkvmerge v5.8.0 ('No Sleep / Pillow') built on Sep 2 2012 15:37:04
Writing library : libebml v1.2.3 + libmatroska v1.3.0

Video
ID : 1
Format : AVC
Format/Info : Advanced Video Codec
Format profile : High@L4.1
Format settings, CABAC : Yes
Format settings, ReFrames : 11 frames
Codec ID : V_MPEG4/ISO/AVC
Duration : 1 h 38 min
Bit rate : 5 695 kb/s
Width : 1 280 pixels
Height : 544 pixels
Display aspect ratio : 2.35:1
Frame rate mode : Constant
Frame rate : 23.976 (24000/1001) FPS
Color space : YUV
Chroma subsampling : 4:2:0
Bit depth : 8 bits
Scan type : Progressive
Bits/(Pixel*Frame) : 0.341
Stream size : 3.92 GiB (86%)
Title : Nothing Like the Holidays.2008.BDRip.720p.[denis100]
Writing library : x264 core 148 r2744 b97ae06
Encoding settings : cabac=1 / ref=11 / deblock=1:-3:-3 / analyse=0x3:0x133 / me=umh / subme=11 / psy=1 / psy_rd=1.00:0.00 / mixed_ref=1 / me_range=32 / chroma_me=1 / trellis=2 / 8x8dct=1 / cqm=0 / deadzone=21,11 / fast_pskip=0 / chroma_qp_offset=-2 / threads=6 / lookahead_threads=1 / sliced_threads=0 / nr=0 / decimate=1 / interlaced=0 / bluray_compat=0 / constrained_intra=0 / bframes=12 / b_pyramid=2 / b_adapt=2 / b_bias=0 / direct=3 / weightb=1 / open_gop=0 / weightp=2 / keyint=240 / keyint_min=23 / scenecut=40 / intra_refresh=0 / rc=crf / mbtree=0 / crf=17.0 / qcomp=0.60 / qpmin=0 / qpmax=69 / qpstep=4 / ip_ratio=1.40 / pb_ratio=1.30 / aq=1:0.95
Language : English
Default : Yes
Forced : No

Audio #1
ID : 2
Format : AC-3
Format/Info : Audio Coding 3
Mode extension : CM (complete main)
Format settings, Endianness : Big
Codec ID : A_AC3
Duration : 1 h 38 min
Bit rate mode : Constant
Bit rate : 192 kb/s
Channel(s) : 2 channels
Channel positions : Front: L R
Sampling rate : 48.0 kHz
Frame rate : 31.250 FPS (1536 spf)
Compression mode : Lossy
Stream size : 135 MiB (3%)
Title : MVO, R5
Language : Russian
Default : Yes
Forced : No

Audio #2
ID : 3
Format : AC-3
Format/Info : Audio Coding 3
Mode extension : CM (complete main)
Format settings, Endianness : Big
Codec ID : A_AC3
Duration : 1 h 38 min
Bit rate mode : Constant
Bit rate : 640 kb/s
Channel(s) : 6 channels
Channel positions : Front: L C R, Side: L R, LFE
Sampling rate : 48.0 kHz
Frame rate : 31.250 FPS (1536 spf)
Compression mode : Lossy
Stream size : 451 MiB (10%)
Language : English
Default : No
Forced : No

Text #1
ID : 4
Format : UTF-8
Codec ID : S_TEXT/UTF8
Codec ID/Info : UTF-8 Plain Text
Language : Russian
Default : No
Forced : No

Text #2
ID : 5
Format : UTF-8
Codec ID : S_TEXT/UTF8
Codec ID/Info : UTF-8 Plain Text
Language : English
Default : No
Forced : No

Menu
00:00:00.000 : en:00:00:00.000
00:03:00.013 : en:00:03:00.013
00:06:15.709 : en:00:06:15.709
00:14:16.773 : en:00:14:16.773
00:22:28.722 : en:00:22:28.722
00:30:23.947 : en:00:30:23.947
00:39:18.481 : en:00:39:18.481
00:47:31.807 : en:00:47:31.807
00:53:53.480 : en:00:53:53.480
01:01:45.160 : en:01:01:45.160
01:07:39.722 : en:01:07:39.722
01:10:34.480 : en:01:10:34.480
01:13:28.237 : en:01:13:28.237
01:18:05.097 : en:01:18:05.097
01:25:27.497 : en:01:25:27.497
01:34:20.697 : en:01:34:20.697
pb.wtf



Скачать С праздниками ничто не сравнится через торрент http://i4.imageban.ru/out/2016/12/31/45bc5a8b3fd2f8c115a8cec8b197f5d6.png Скачать фильм С праздниками ничто не сравнится через торрент бесплантно в хорошем качестве Описание:На рождественские каникулы в родовом поместье собирается вместе большая семья, чтобы подвести итоги уходящего года и вместе ... 7.8 10 4
Info! Золотая раздача, скачанное не засчитывается.
Торрент: Зарегистрирован [2016-12-31 12:32] · скачан: 70 раз
Статус: √ проверено
Размер: 4.58 GB
Как cкачать? Как скачать С праздниками ничто не сравнится через торрент | qTorrent

% Раздел Тема Автор DL S | L
Фильмы 2006-2008 [ 1.5 GB ] С праздниками ничто не сравнится / Nothing Like the Holidays [2008 ] aspace Скачать
1 | 0

28-11-2019 20:33  

Отключить всю рекламу на сайте

    Дорогой пользователь! Огромная просьба, поблагодарите релизера, оцените раздачу и оставьте свои комментарий, если Вы скачали С праздниками ничто не сравнится через торрент бесплатно! Внесите свою лепту в развитие PiratBit!
    Комментировать посты могут только пользователи прошедшие не сложную регистрацию
    Показать сообщения:    

    С праздниками ничто не сравнится через торрент
    Скачать бесплатно С праздниками ничто не сравнится
    С праздниками ничто не сравнится скачать торрент
    С праздниками ничто не сравнится смотреть онлайн
    Cкачать фильм С праздниками ничто не сравнится бесплатно
    С праздниками ничто не сравнится скачать торрент в хорошем качестве
    С праздниками ничто не сравнится смотреть онлайн бесплатно в хорошем качестве


    Вы не можете начинать темы
    Вы не можете отвечать на сообщения
    Вы не можете редактировать свои сообщения
    Вы не можете удалять свои сообщения
    Вы не можете голосовать в опросах
    Вы не можете прикреплять файлы к сообщениям
    Вы можете скачивать файлы