Ссылка на приватное зеркало всего за 1$. Внимание количество ограничено!!!

iTunes

iTunes

iTunes

1

iTunes

iTunes

iTunes

iTunes

iTunes

30
pack

$ от Little Big

ВАЖНО

!!Акция!!

Alien_RageХит недели

RePack

Resident Evil 21

ИГРА 18+

pack

RePack

jed

!!Акция!!

Alien_Rage

RePack

fifa19

RePack

Assassins Creed: Odyssey

RePack

NEED FOR SPEED™ PAYBACK

4 сезон

9 сезон

Бесстыжие 9 сезон

Все сериалы

все сериалы на PB.wtf

RePack

FAR CRY 5
  

Вечность / Éternité (Чан Ань Хунг) [2016, драма, WEB-DL 1080p] Профессиональный (многоголосый) [iTunes] pb.wtf

Вечность через торрент pb.wtf

Раздают: 1 [ 0 KB/s ]
Размер: 3.99 GB | Добавлен: 3 года 6 мес. назад | Торрент скачан:80 раз
Скачать  

01-01-2017 07:33 Вечность Скачать торрент  

Вечность / Éternité

Год выпуска: 2016
Страна: Франция
Жанр: драма

Продолжительность: 01:54:52
Перевод: Профессиональный (многоголосый) [iTunes]
Режиссер: Чан Ань Хунг
В ролях:

Одри Тоту (Valentine), Беренис Бежо (Gabrielle), Мелани Лоран (Mathilde), Жереми Ренье (Henri), Пьер Деладоншам (Charles), Ирен Жакоб (Mère de Gabrielle), Арье Уортальтер (Jules), Валери Стро (Mère de Mathilde), Филиппин Леруа-Больё (Mère de Valentine), Чан Ну Йен Кхе (рассказчик, озвучка), Лу Ламбрехт (Valentine (7 ans)), Mya Essalhi (Valentine (14 ans))
Описание:
Три поколения женщин. На протяжении 100 лет они пытаются сохранить и приумножить любовь. Их жизни меняются: появляются новые люди, отношения, ускользает красота. И только истинное чувство остается вечным.
Рейтинг:

Качество: WEB-DL 1080p
Формат: MKV
Видео: AVC, 1920x804 (2.40:1), 4491 kbps, 24 fps, 0,121 bpp
Аудио: русский / AC3 / 5.1 / 48 kHz / 384 kbps / |MVO, iTunes|
Навигация по главам: есть
General
Unique ID : 242182395618545596401554189916588340104 (0xB632A1FD613C3B6C8C2DA8770D7DF388)
Complete name : E:\Be4H0Ct.2O16.P.WEB-DL.1O8Op.mkv
Format : Matroska
Format version : Version 2
File size : 3.99 GiB
Duration : 1 h 54 min
Overall bit rate : 4 974 kb/s
Encoded date : UTC 2016-12-31 19:30:10
Writing application : mkvmerge v8.3.0 ('Over the Horizon') 64bit
Writing library : libebml v1.3.1 + libmatroska v1.4.2

Video
ID : 1
Format : AVC
Format/Info : Advanced Video Codec
Format profile : High@L4
Format settings, CABAC : Yes
Format settings, ReFrames : 5 frames
Codec ID : V_MPEG4/ISO/AVC
Duration : 1 h 54 min
Bit rate : 4 491 kb/s
Width : 1 920 pixels
Height : 804 pixels
Display aspect ratio : 2.40:1
Frame rate mode : Constant
Frame rate : 24.000 FPS
Color space : YUV
Chroma subsampling : 4:2:0
Bit depth : 8 bits
Scan type : Progressive
Bits/(Pixel*Frame) : 0.121
Stream size : 3.60 GiB (90%)
Language : English
Default : Yes
Forced : No
Color range : Limited
Color primaries : BT.709
Transfer characteristics : BT.709
Matrix coefficients : BT.709

Audio
ID : 2
Format : AC-3
Format/Info : Audio Coding 3
Mode extension : CM (complete main)
Format settings, Endianness : Big
Codec ID : A_AC3
Duration : 1 h 54 min
Bit rate mode : Constant
Bit rate : 384 kb/s
Channel(s) : 6 channels
Channel positions : Front: L C R, Side: L R, LFE
Sampling rate : 48.0 kHz
Frame rate : 31.250 FPS (1536 spf)
Compression mode : Lossy
Stream size : 315 MiB (8%)
Language : Russian
Default : Yes
Forced : No

Menu
00:00:00.000 : en:Глава 1
00:08:14.250 : en:Глава 2
00:16:23.500 : en:Глава 3
00:25:28.708 : en:Глава 4
00:35:25.208 : en:Глава 5
00:43:40.624 : en:Глава 6
00:51:41.874 : en:Глава 7
00:59:22.124 : en:Глава 8
01:06:08.290 : en:Глава 9
01:14:34.790 : en:Глава 10
01:22:08.415 : en:Глава 11
01:29:53.581 : en:Глава 12
01:37:14.039 : en:Глава 13
01:45:23.580 : en:Глава 14
pb.wtf



Скачать Вечность через торрент http://i5.imageban.ru/out/2017/01/01/4c7f1b687e710ea53f841b379efc0551.jpg Скачать фильм Вечность через торрент бесплантно в хорошем качестве Описание: Три поколения женщин. На протяжении 100 лет они пытаются сохранить и приумножить любовь. Их жизни меняются: появляются новые ... 7.9 10 9
Торрент: Зарегистрирован [2017-01-01 07:33] · скачан: 80 раз
Статус: √ проверено
Размер: 3.99 GB
Как cкачать? Как скачать Вечность через торрент | qTorrent

% Раздел Тема Автор DL S | L
Фильмы 2018 [DVDrip, WEB-DLRip, HDrip] (DUB, MVO) [ 1.42 GB ] Ван Го На пороге вечности / At Eternity's Gate [2018 биография BDRip] - Twi7ter Скачать
1 | 0
T Фильмы (WEB-DL 720p, 1080p) [ 3.96 GB ] Ван Го На пороге вечности / At Eternity's Gate [2018 биография WEB-DL 1080p] MVO [HDRezka Studio] sheker187 Скачать
4 | 0
Фильмы 2016 [DVDrip, WEB-DLRip, HDrip] (DUB, MVO) [ 2.05 GB ] Вечность / Eternite [2016 экранизация HDRip] MVO bober100 Скачать
1 | 0
Фильмы 2016 [DVDrip, WEB-DLRip, HDrip] (DUB, MVO) [ 1.37 GB ] Вечность / Eternite [2016 экранизация HDRip] MVO bober100 Скачать
1 | 0
Фильмы 2016 [DVDrip, WEB-DLRip, HDrip] (DUB, MVO) [ 2.19 GB ] Вечность / Éternité [2016 WEB-DLRip многоголосый закадровый ""] coc900 Скачать
1 | 0
Фильмы 2016 [DVDrip, WEB-DLRip, HDrip] (DUB, MVO) [ 1.37 GB ] Вечность / Éternité [2016 WEB-DLRip] -Lexx- Скачать
1 | 0
MMORPG [ 13.13 GB ] Aion: Башня Вечности \ Aion: The Tower of Eternity v 1.9.0.1 [ПираткаRUAion-Live] DoTa Скачать
1 | 0

28-11-2019 20:33  

Отключить всю рекламу на сайте

    Дорогой пользователь! Огромная просьба, поблагодарите релизера, оцените раздачу и оставьте свои комментарий, если Вы скачали Вечность через торрент бесплатно! Внесите свою лепту в развитие PiratBit!
    Комментировать посты могут только пользователи прошедшие не сложную регистрацию
    Показать сообщения:    

    Вечность через торрент
    Скачать бесплатно Вечность
    Вечность скачать торрент
    Вечность смотреть онлайн
    Cкачать фильм Вечность бесплатно
    Вечность скачать торрент в хорошем качестве
    Вечность смотреть онлайн бесплатно в хорошем качестве


    Вы не можете начинать темы
    Вы не можете отвечать на сообщения
    Вы не можете редактировать свои сообщения
    Вы не можете удалять свои сообщения
    Вы не можете голосовать в опросах
    Вы не можете прикреплять файлы к сообщениям
    Вы можете скачивать файлы