MEGA SALE -50% FORZA HORIZON 4 ULTIMATE+ВСЕ DLC+ОНЛАЙН всего за 599р. 299 руб. (супер цена). Внимание количество ограничено!!!

iTunes

1+1

iTunes

мы

iTunes

1

iTunes

Чернобыль

iTunes

Ральф против интернета

Лицензия

ПШазам

Лицензия

Игра престолов

Лицензия

30
pack

ВАЖНО

!!Акция!!

Alien_RageХит недели

RePack

Resident Evil 21

ИГРА 18+

pack

RePack

Metro:Exodus

!!Акция!!

Alien_Rage

RePack

fifa19

RePack

Assassins Creed: Odyssey

RePack

NEED FOR SPEED™ PAYBACK

3 сезон

9 сезон

Бесстыжие 9 сезон

Все сериалы

все сериалы на PB.wtf

RePack

FAR CRY 5
Ребята, катастрофически не хватает 7730р. для оплаты серверов за АВГУСТ (всвязи с блокировками трафик упал в 3 раза), 1-2р., выручайте.
  

Вечерний квартал - Новый год [95] (2016) [2016 г., Юмористическое шоу, концерт, сатира, SATRip, Оригинальный] pb.wtf

Скачать  

01-01-2017 20:24 Вечерний квартал - Новый год Скачать торрент  

Вечерний квартал - Новый год [95] (2016)
Год выпуска: 2016
Страна: Украина
Жанр: Юмористическое шоу, концерт, сатира
Продолжительность: 02:51:47
Перевод: Оригинальный

В ролях: Владимир Зеленский, Юрий Крапов, Денис Манжосов, Елена Кравец, Евгений Кошевой, Сергей Казанин, Александр Пикалов, Юрий Корявченков, Аркадий Лапухин

Описание: Однажды веселые ребята из "95-го квартала" решили отметить свой переезд из родного Кривого Рога в Киев, а заодно 10-летие команды новым шоу. Коллектив подобрался душевный, "с огоньком", гости - сплошь знаменитые, а столичная публика - щедрая на аплодисменты. Так родилась самая смешная и популярная передача на отечественном телевидении - "Вечерний квартал". Идея шоу проста: в городе N есть некий модный квартал, в котором тусуются девять смешных жителей. Остальные просто приходят к ним в гости. Правда, гости не совсем обычные: среди них встречаются и богатые, и знаменитые, политики, и дизайнеры, и поп-звезды. Главный критерий - наличие здорового чувства юмора. Без него - никак, так как гостей здесь встречают не хлебом-солью, а розыгрышами и подколками, а те в свою очередь участвуют в скетчах и исполняют музыкальные или танцевальные номера.

Качество: SATRip
Формат: AVI
Видео кодек: XviD
Аудио кодек: MPEG Audio
Видео: 720x400 (1.32:1), 25 fps, XviD build 50 ~1800 kbps avg, 0.20 bit/pixel
Аудио#1: 48 kHz, MPEG Layer 3, 2 ch, ~128.00 kbps avg
General
Complete name : D:\Films\Vecherniy.kvartal.95 31.12.2016.avi
Format : AVI
Format/Info : Audio Video Interleave
Format profile : OpenDML
File size : 2.08 GiB
Duration : 2 h 51 min
Overall bit rate : 1 738 kb/s
Writing application : VirtualDubMod 1.5.10.3 | www.virtualdub-fr.org || (build 2550/release)
Writing library : VirtualDub build 29808/release

Video
ID : 0
Format : MPEG-4 Visual
Format profile : Advanced Simple@L5
Format settings, BVOP : 2
Format settings, QPel : No
Format settings, GMC : No warppoints
Format settings, Matrix : Default (H.263)
Codec ID : XVID
Codec ID/Hint : XviD
Duration : 2 h 51 min
Bit rate : 1 597 kb/s
Width : 720 pixels
Height : 400 pixels
Display aspect ratio : 16:9
Frame rate : 25.000 FPS
Color space : YUV
Chroma subsampling : 4:2:0
Bit depth : 8 bits
Scan type : Progressive
Compression mode : Lossy
Bits/(Pixel*Frame) : 0.222
Stream size : 1.92 GiB (92%)
Writing library : XviD 1.2.1 (UTC 2008-12-04)

Audio
ID : 1
Format : MPEG Audio
Format version : Version 1
Format profile : Layer 3
Mode : Joint stereo
Mode extension : MS Stereo
Codec ID : 55
Codec ID/Hint : MP3
Duration : 2 h 51 min
Bit rate mode : Constant
Bit rate : 128 kb/s
Channel(s) : 2 channels
Sampling rate : 48.0 kHz
Compression mode : Lossy
Stream size : 157 MiB (7%)
Alignment : Aligned on interleaves
Interleave, duration : 40 ms (1.00 video frame)
Interleave, preload duration : 504 ms
Writing library : LAME3.99r
Encoding settings : -m j -V 4 -q 2 -lowpass 17 -b 128

pb.wtf



Скачать
Чтобы иметь возможность скачивать с Торрент Трекера, нужно Зарегистрироваться

Как скачивать  ·  Рейтинг и ограничения


>> Регистрируемся здесь <<






Отзывы и комментарии о схеме читаем и пишем здесь: ---> Отзывы и комментарии о схеме

Новые благодарочки в телеграм довольных пользователей:
скриншот   скриншот   скриншот   скриншот   скриншот

06-01-2017 20:13 Вечерний квартал - Новый год Скачать торрент  

Большое спасибоpb.wtf



    Дорогой пользователь! Огромная просьба, поблагодарите релизера, оцените раздачу и оставьте свои комментарий, если Вы скачали Вечерний квартал - Новый год через торрент бесплатно! Внесите свою лепту в развитие PiratBit!
    Комментировать посты могут только пользователи прошедшие не сложную регистрацию
    Показать сообщения:    

    Вечерний квартал - Новый год через торрент
    Скачать бесплатно Вечерний квартал - Новый год
    Вечерний квартал - Новый год скачать торрент
    Вечерний квартал - Новый год смотреть онлайн
    Cкачать фильм Вечерний квартал - Новый год бесплатно
    Вечерний квартал - Новый год скачать торрент в хорошем качестве
    Вечерний квартал - Новый год смотреть онлайн бесплатно в хорошем качестве


    Вы не можете начинать темы
    Вы не можете отвечать на сообщения
    Вы не можете редактировать свои сообщения
    Вы не можете удалять свои сообщения
    Вы не можете голосовать в опросах
    Вы не можете прикреплять файлы к сообщениям
    Вы не можете скачивать файлы