новый адрес
Ссылка на приватное зеркало всего за 1$. Внимание количество ограничено!!!

iTunes

1+1

iTunes

мы

WEB-DL

1

iTunes

Чернобыль

iTunes

Ральф против интернета

Лицензия

ПШазам

Лицензия

Оно 2

Лицензия

30
pack

Вам бонус

ВАЖНО

!!Акция!!

Alien_RageХит недели

RePack

Resident Evil 21

ИГРА 18+

pack

RePack

jed

!!Акция!!

Alien_Rage

RePack

fifa19

RePack

Assassins Creed: Odyssey

RePack

NEED FOR SPEED™ PAYBACK

3 сезон

9 сезон

Бесстыжие 9 сезон

Все сериалы

все сериалы на PB.wtf

RePack

FAR CRY 5
Ребята, катастрофически не хватает 1900р. для оплаты серверов за Октябрь (всвязи с блокировками трафик упал в 3 раза), 1-2р., выручайте.
  

3 счастливых поросенка / Les 3 p'tits cochons 2 (Жан-Франсуа Пуле) [2016 г., мелодрама, комедия, HDRiр Любительский многоголосый (Синема УС) ] pb.wtf

3 счастливых поросенка через торрент pb.wtf

Размер: 1.37 GB | Добавлен: 2 года 11 мес. назад | Торрент скачан:89 раз
Скачать  

03-01-2017 10:42 3 счастливых поросенка Скачать торрент  

3 счастливых поросенка / Les 3 p'tits cochons 2
Год выпуска: 2016
Страна: Канада
Жанр: мелодрама, комедия
Продолжительность: 01:43:20
Перевод: Любительский многоголосый (Синема УС)
Субтитры: Отсутствуют

Режиссер: Жан-Франсуа Пуле

Премьера в мире: 1 июля 2016



В ролях: Пол Дусе, Гийом Леме-Тивьерж, Патрис Робитейлл, Софи Прегент, Изабель Рише, Максим Лепаж, Сяо Сунь, Катрин Бойли, Джулиан Кэйси, Тетчена Белланж

Описание: Реми, Матьё и Кристиан — братья, чья гиперактивность доставляет массу неприятностей им самим, их ревнивым женам и подружкам. Всё только усложняется, когда Доминик, жена Реми, выставляет мужа за дверь и не прочь завести интрижку с его братом…

Сэмпл http://multi-up.com/1133881

Доп. информация: Присутствует реклама!

Качество: HDRip
Формат: AVI
Видео кодек: XviD
Аудио кодек: AC3
Видео: XviD, 720x304, 23,976 fps, 1692 Kbps
Аудио: AC-3, 192 Kbps, 2 ch, 48,0 KHz



General
Complete name : H:\релизы.торрентфайл\Les_3_Ptits_Cochons_2_2016_HDRip.avi
Format : AVI
Format/Info : Audio Video Interleave
File size : 1.37 GiB
Duration : 1h 43mn
Overall bit rate : 1 893 Kbps
Writing application : VirtualDubMod 1.5.10.2 (build 2540/release)
Writing library : VirtualDubMod build 2540/release

Video
ID : 0
Format : MPEG-4 Visual
Format profile : Advanced Simple@L5
Format settings, BVOP : 2
Format settings, QPel : No
Format settings, GMC : No warppoints
Format settings, Matrix : Default (MPEG)
Codec ID : XVID
Codec ID/Hint : XviD
Duration : 1h 43mn
Bit rate : 1 692 Kbps
Width : 720 pixels
Height : 304 pixels
Display aspect ratio : 2.35:1
Frame rate : 23.976 fps
Color space : YUV
Chroma subsampling : 4:2:0
Bit depth : 8 bits
Scan type : Progressive
Compression mode : Lossy
Bits/(Pixel*Frame) : 0.322
Stream size : 1.22 GiB (89%)
Writing library : XviD 1.2.1 (UTC 2008-12-04)

Audio
ID : 1
Format : AC-3
Format/Info : Audio Coding 3
Mode extension : CM (complete main)
Format settings, Endianness : Big
Codec ID : 2000
Duration : 1h 43mn
Bit rate mode : Constant
Bit rate : 192 Kbps
Channel(s) : 2 channels
Channel positions : Front: L R
Sampling rate : 48.0 KHz
Bit depth : 16 bits
Compression mode : Lossy
Stream size : 142 MiB (10%)
Alignment : Split accross interleaves
Interleave, duration : 42 ms (1.00 video frame)
Interleave, preload duration : 500 ms

pb.wtf



Скачать 3 счастливых поросенка через торрент http://pic1.kartinco.top/images/11/526rb.jpg Скачать фильм 3 счастливых поросенка через торрент бесплантно в хорошем качестве Описание: Реми, Матьё и Кристиан — братья, чья гиперактивность доставляет массу неприятностей им самим, их ревнивым женам и подружкам. Всё ... 5.5 10 4
Торрент: Зарегистрирован [2017-01-03 10:42] · скачан: 89 раз
Статус: T временная
Размер: 1.37 GB
Как cкачать? Как скачать 3 счастливых поросенка через торрент | qTorrent



Последний раз редактировалось: oleg8 (2017-01-03 19:03), всего редактировалось 1 раз

28-11-2019 20:33  

Отключить всю рекламу на сайте

03-01-2017 16:17 3 счастливых поросенка Скачать торрент  

oleg8 писал(а):

Перевод: Любительский многоголосый

oleg8, не забывайте указывать, чей именно перевод. Синема УС?
Правила раздела Фильмы. Как правильно оформить раздачу фильма

Цитата:

7.2 Если перевод осуществляла какая либо из релиз групп, например "LostFilm" или "NovaFilm" и т.д., то это обязательно должно быть указано в графе "Перевод". Пример: "Перевод: Многоголосый, закадровый (LostFilm)".

pb.wtf



03-01-2017 19:04 3 счастливых поросенка Скачать торрент  

вроде они .я не уверен точно.pb.wtf
K-Lexx- писал(а):

Они. Других пока нет.



    Дорогой пользователь! Огромная просьба, поблагодарите релизера, оцените раздачу и оставьте свои комментарий, если Вы скачали 3 счастливых поросенка через торрент бесплатно! Внесите свою лепту в развитие PiratBit!
    Комментировать посты могут только пользователи прошедшие не сложную регистрацию
    Показать сообщения:    

    3 счастливых поросенка через торрент
    Скачать бесплатно 3 счастливых поросенка
    3 счастливых поросенка скачать торрент
    3 счастливых поросенка смотреть онлайн
    Cкачать фильм 3 счастливых поросенка бесплатно
    3 счастливых поросенка скачать торрент в хорошем качестве
    3 счастливых поросенка смотреть онлайн бесплатно в хорошем качестве


    Вы не можете начинать темы
    Вы не можете отвечать на сообщения
    Вы не можете редактировать свои сообщения
    Вы не можете удалять свои сообщения
    Вы не можете голосовать в опросах
    Вы не можете прикреплять файлы к сообщениям
    Вы можете скачивать файлы