Ссылка на приватное зеркало нашего сайта всего за 1$. Внимание количество ограничено!!!

2 сезон

iTunes

1 сезон

1

2 сезон

2 сезон

iTunes

1 сезон

RePack

30

Ultimate

ВАЖНО

ИГРА 18+

pack

RePack

MK11
pack

Забери бонус

RePack

jed

!!Акция!!

Alien_Rage

RePack

fifa19

RePack

Assassins Creed: Odyssey

RePack

NEED FOR SPEED™ PAYBACK

4 сезон

9 сезон

Бесстыжие 9 сезон

Все сериалы

все сериалы на PB.wtf

RePack

FAR CRY 5
  

ОА / The OA / Сезон 1 / 1 серии из 8 (Зал Батманглидж) [2016, драма, детектив, мистика, WEBRip 1080p] [VO] (A.Lvov) pb.wtf

ОА через торрент pb.wtf

Размер: 2.58 GB | Добавлен: 3 года 10 мес. назад | Торрент скачан:99 раз
Скачать  

03-01-2017 13:04 ОА Скачать торрент  

ОА / The OA Год выпуска: 2016
Страна: США
Жанр: драма, детектив, мистика
Продолжительность: ~ 01:00:00
Перевод: Любительский (одноголосый закадровый) A.Lvov

Режиссёр: Зал Батманглидж

В ролях: Иэн Александр, Уилл Брилл, Эмори Коэн, Патрик Гибсон, Брит Марлинг, Брендан Мейер, Брэндон Переа, Скотт Уилсон, Роберт Эли, Маркус Чои и др.

Описание: В центре истории девушка двадцати лет по имени Прерия Джонсон, которая возвращается домой через семь лет после загадочного исчезновения. Что с ней произошло, никто не знает, а сама девушка не рассказывает, лишь утверждает, что все это время была поблизости. Еще больше интриги добавляет чудесное прозрение девушки — до исчезновения она была слепой, поэтому членов семьи она узнает только на ощупь.


Качество: WEBRip 1080p
Формат: MKV
Видео: H264, 1920x1080 (16:9), 23.976 fps, 4 403 Kbps
Аудио: ac3, 48 KHz, 640 kbps, [оригинал]
Аудио 2: ac3, 48 KHz, 192 kbps, [A.Lvov]
Субтитры: Отсутствуют
Реклама: Отсутсвует
General
Unique ID : 196208040710743635403430589652526764989 (0x939C4B49B51E4FD5A0B8C535631D13BD)
Complete name : C:\Users\user\Desktop\Готовые работы\The OA\the.oa_s1_1080p\the.oa.s01e01.1080p.webrip.x264-skgtv[A.Lvov].mkv
Format : Matroska
Format version : Version 2
File size : 2.58 GiB
Duration : 1h 10mn
Overall bit rate : 5 226 Kbps
Movie name : the.oa.s01e01.1080p.skgtv
Encoded date : UTC 2016-12-16 20:51:42
Writing application : mkvmerge v4.0.0 ('The Stars were mine') сборка от Jun 6 2010 16:18:42
Writing library : Lavf54.63.104
DURATION : 01:10:33.088000000
NUMBER_OF_FRAMES : 132284
NUMBER_OF_BYTES : 338647040
_STATISTICS_WRITING_APP : mkvmerge v8.9.0 ('Father Daughter') 32bit
_STATISTICS_WRITING_DATE_UT : 2016-12-16 20:51:42
_STATISTICS_TAGS : BPS DURATION NUMBER_OF_FRAMES NUMBER_OF_BYTES
Video
ID : 1
Format : AVC
Format/Info : Advanced Video Codec
Format profile : Main@L4
Format settings, CABAC : Yes
Format settings, ReFrames : 1 frame
Codec ID : V_MPEG4/ISO/AVC
Duration : 1h 10mn
Bit rate : 4 403 Kbps
Width : 1 920 pixels
Height : 1 080 pixels
Display aspect ratio : 16:9
Frame rate mode : Constant
Frame rate : 23.976 fps
Color space : YUV
Chroma subsampling : 4:2:0
Bit depth : 8 bits
Scan type : Progressive
Bits/(Pixel*Frame) : 0.089
Stream size : 2.12 GiB (82%)
Writing library : x264 core 129
Encoding settings : cabac=1 / ref=1 / deblock=1:0:0 / analyse=0x1:0x131 / me=dia / subme=2 / psy=1 / psy_rd=1.00:0.00 / mixed_ref=0 / me_range=16 / chroma_me=1 / trellis=0 / 8x8dct=0 / cqm=0 / deadzone=21,11 / fast_pskip=1 / chroma_qp_offset=0 / threads=8 / lookahead_threads=1 / sliced_threads=0 / nr=0 / decimate=1 / interlaced=0 / bluray_compat=0 / constrained_intra=0 / bframes=0 / weightp=2 / keyint=250 / keyint_min=25 / scenecut=40 / intra_refresh=0 / rc_lookahead=40 / rc=abr / mbtree=1 / bitrate=4403 / ratetol=1.0 / qcomp=0.60 / qpmin=10 / qpmax=51 / qpstep=4 / ip_ratio=1.41 / aq=1:1.00
Default : No
Forced : No
Audio #1
ID : 2
Format : AC-3
Format/Info : Audio Coding 3
Mode extension : CM (complete main)
Format settings, Endianness : Big
Codec ID : A_AC3
Duration : 1h 10mn
Bit rate mode : Constant
Bit rate : 192 Kbps
Channel(s) : 2 channels
Channel positions : Front: L R
Sampling rate : 48.0 KHz
Compression mode : Lossy
Stream size : 97.0 MiB (4%)
Title : ac3 48 KHz 192 kbps (A.Lvov)
Language : Russian
Default : Yes
Forced : No
Audio #2
ID : 3
Format : AC-3
Format/Info : Audio Coding 3
Mode extension : CM (complete main)
Format settings, Endianness : Big
Codec ID : A_AC3
Duration : 1h 10mn
Bit rate mode : Constant
Bit rate : 640 Kbps
Channel(s) : 6 channels
Channel positions : Front: L C R, Side: L R, LFE
Sampling rate : 48.0 KHz
Compression mode : Lossy
Stream size : 323 MiB (12%)
Language : English
Default : No
Forced : No
Раздача ведётся путём добавления новых серий; при каждом добавлении создаётся новый торрент. Чтобы начать докачку новой серии, пользователям необходимо сделать следующее:
(1) остановить скачивание,
(2) удалить старый торрент у себя из клиента (старые серии удалять не надо),
(3) скачать новый торрент и запустить его у себя в клиенте вместо старого, при этом указать клиенту путь в старую папку куда и должно происходить скачивание новых серий.
Ваш клиент при этом должен произвести хеширование (проверку) старой папки (если не производит сам – помогите ему сделать это), и будет докачивать только те серии которых у вас ещё нет. Старые серии при этом не удаляются, а продолжают раздаваться!
Eсли вы уже удалили старые серии, то предотвратить повторную закачку старых серий можно, отжав галочку в соответствующих местах при запуске нового торрента. По возможности, желательно не удалять старые серии как можно дольше чтобы релизёр не столько продолжал раздавать старые серии, а смог сконцентрироваться на новых.
pb.wtf



Скачать ОА через торрент http://i87.fastpic.ru/big/2016/1229/50/f81dee693f5ed6a740d66919d52d6d50.jpg Скачать фильм ОА через торрент бесплантно в хорошем качестве Описание: В центре истории девушка двадцати лет по имени Прерия Джонсон, которая возвращается домой через семь лет после загадочного ... 10 10 5
Торрент: Зарегистрирован [2017-01-03 13:04] · скачан: 99 раз
Статус: √ проверено
Размер: 2.58 GB
Как cкачать? Как скачать ОА через торрент | qTorrent

% Раздел Тема Автор DL S | L
Зарубежные сериалы [ 5.02 GB ] ОА / The OA / Сезон: 2 / Серии 1-8 из 8 [2019 WEBRip] [MVO] killermax2013 Скачать
1 | 0
Зарубежные сериалы [ 67.97 GB ] ОА / The OA / Сезон: 2 / Серии: 1-8 из 8 [2019 UHD WEBRip 2160p] MVO [LostFilm] sheker187 Скачать
1 | 0
Зарубежные сериалы [ 20.55 GB ] ОА / The OA / Сезон: 2 / Серии 1-8 из 8 [2019 WEBRip 1080p] [MVO] killermax2013 Скачать
1 | 0
Зарубежные сериалы [ 7.7 GB ] ОА / The OA / Сезон: 2 / Серии 1-8 из 8 [2019 WEBRip 720p] [MVO] killermax2013 Скачать
1 | 0
Зарубежные сериалы [ 7.57 GB ] ОА / The OA / Сезон: 2 / Серии: 1-8 из 8 [2019 WEBRip 720p] MVO [Baibako] bober100 Скачать
1 | 0
Зарубежные сериалы [ 8.29 GB ] ОА / The OA / Сезон: 2 / Серии: 1-8 из 8 [2019 WEBRip 720p] [DVO] killermax2013 Скачать
1 | 0
Зарубежные сериалы [ 12.96 GB ] ОА / The OA / Сезон 1 / 1-8 серии из 8 [2016 WEBRip 720p] [MVO] killermax2013 Скачать
1 | 0

28-11-2019 20:33  

Отключить всю рекламу на сайте

03-01-2017 17:57 ОА Скачать торрент  

супер!!!! Очень даже супер!!!pb.wtf



    Дорогой пользователь! Огромная просьба, поблагодарите релизера, оцените раздачу и оставьте свои комментарий, если Вы скачали ОА через торрент бесплатно! Внесите свою лепту в развитие PiratBit!
    Комментировать посты могут только пользователи прошедшие не сложную регистрацию
    Показать сообщения:    

    ОА через торрент
    Скачать бесплатно ОА
    ОА скачать торрент
    ОА смотреть онлайн
    Cкачать фильм ОА бесплатно
    ОА скачать торрент в хорошем качестве
    ОА смотреть онлайн бесплатно в хорошем качестве


    Вы не можете начинать темы
    Вы не можете отвечать на сообщения
    Вы не можете редактировать свои сообщения
    Вы не можете удалять свои сообщения
    Вы не можете голосовать в опросах
    Вы не можете прикреплять файлы к сообщениям
    Вы можете скачивать файлы