Ссылка на приватное зеркало всего за 1$. Внимание количество ограничено!!!

iTunes

iTunes

iTunes

1

iTunes

iTunes

iTunes

iTunes

iTunes

30
pack

Новость дня

ВАЖНО

!!Акция!!

Alien_RageХит недели

RePack

Resident Evil 21

ИГРА 18+

pack

RePack

jed

!!Акция!!

Alien_Rage

RePack

fifa19

RePack

Assassins Creed: Odyssey

RePack

NEED FOR SPEED™ PAYBACK

4 сезон

9 сезон

Бесстыжие 9 сезон

Все сериалы

все сериалы на PB.wtf

RePack

FAR CRY 5
  

Про Петра и Павла (Юрий Попович) [2015 г., Военный, драма, HDTVRip by _Один_777] pb.wtf

Про Петра и Павла через торрент pb.wtf

Размер: 747 MB | Добавлен: 3 года 4 мес. назад | Торрент скачан:82 раза
Скачать  

03-01-2017 21:31 Про Петра и Павла Скачать торрент  

Про Петра и Павла
Год выпуска: 2015
Страна: Россия
Жанр: Военный, драма
Продолжительность: 01:29:51
Субтитры: нет

Режиссер: Юрий Попович



В ролях: Килиан Шуберт, Костя Капский, Валерий Жуков, Сергей Удовик, Олег Ткачёв, Роман Шумилов, Кирилл Новицкий, Антон Жуков...

Описание: Военная драма, повествующая о встрече в апреле 1945 года двух мальчиков - русского и немецкого.

Качество: HDTVRip
Формат: AVI
Видео кодек: XviD
Аудио кодек: МР3
Видео: 640x352 (1.82:1), 25 fps, XviD build 73 ~1023 kbps avg, 0.18 bit/pixel
Аудио#1: 48 kHz, MPEG Layer 3, 2 ch, ~128.00 kbps avg

Общее
Полное имя : F:\Pro.Petra.i.Pavla.2015.HDTVRip.740.[Один 777].avi
Формат : AVI
Формат/Информация : Audio Video Interleave
Размер файла : 747 Мбайт
Продолжительность : 1 ч. 29 м.
Общий поток : 1162 Кбит/сек
Программа кодирования : VirtualDubMod 1.5.10.3 | www.virtualdub-fr.org || (build 2550/release)
Библиотека кодирования : VirtualDubMod build 2550/release

Видео
Идентификатор : 0
Формат : MPEG-4 Visual
Профиль формата : Advanced Simple@L5
Параметр BVOP формата : 1
Параметр QPel формата : Нет
Параметр GMC формата : Без точки перехода
Параметр матрицы формата : Default (H.263)
Идентификатор кодека : XVID
Идентификатор кодека/Подсказка : XviD
Продолжительность : 1 ч. 29 м.
Битрейт : 1024 Кбит/сек
Ширина : 640 пикселей
Высота : 352 пикселя
Соотношение сторон : 16:9
Частота кадров : 25,000 кадров/сек
Цветовое пространство : YUV
Субдискретизация насыщенности : 4:2:0
Битовая глубина : 8 бит
Тип развёртки : Прогрессивная
Метод сжатия : С потерями
Бит/(Пиксели*Кадры) : 0.182
Размер потока : 658 Мбайт (88%)
Библиотека кодирования : XviD 73

Аудио
Идентификатор : 1
Формат : MPEG Audio
Версия формата : Version 1
Профиль формата : Layer 3
Идентификатор кодека : 55
Идентификатор кодека/Подсказка : MP3
Продолжительность : 1 ч. 29 м.
Вид битрейта : Постоянный
Битрейт : 128 Кбит/сек
Каналы : 2 канала
Частота : 48,0 КГц
Метод сжатия : С потерями
Размер потока : 82,3 Мбайт (11%)
Выравнивание : Соединение по промежуткам
Продолжительность промежутка : 40 мс. (1,00 видеокадр)
Время предзагрузки промежутка : 504 мс.
Библиотека кодирования : LAME3.99r
Настройки программы : -m s -V 4 -q 2 -lowpass 17 -b 128

pb.wtf



Скачать Про Петра и Павла через торрент http://i4.imageban.ru/out/2017/01/03/9f57d4f92047f219bceaca4802ca324b.jpg Скачать фильм Про Петра и Павла через торрент бесплантно в хорошем качестве Описание: Военная драма, повествующая о встрече в апреле 1945 года двух мальчиков - русского и ... 10 10 6
Торрент: Зарегистрирован [2017-01-03 21:31] · скачан: 82 раз
Статус: √ проверено
Размер: 747 MB
Как cкачать? Как скачать Про Петра и Павла через торрент | qTorrent

% Раздел Тема Автор DL S | L
Наши новые фильмы 2015 [ 1.37 GB ] Про Петра и Павла [2015 Военный HDTVRip ] oleg8 Скачать
1 | 0
Наши новые фильмы 2015 [ 1.46 GB ] Про Петра и Павла [2015 Военный HDTVRip by _Один_777] Один 777 Скачать
1 | 0

28-11-2019 20:33  

Отключить всю рекламу на сайте

    Дорогой пользователь! Огромная просьба, поблагодарите релизера, оцените раздачу и оставьте свои комментарий, если Вы скачали Про Петра и Павла через торрент бесплатно! Внесите свою лепту в развитие PiratBit!
    Комментировать посты могут только пользователи прошедшие не сложную регистрацию
    Показать сообщения:    

    Про Петра и Павла через торрент
    Скачать бесплатно Про Петра и Павла
    Про Петра и Павла скачать торрент
    Про Петра и Павла смотреть онлайн
    Cкачать фильм Про Петра и Павла бесплатно
    Про Петра и Павла скачать торрент в хорошем качестве
    Про Петра и Павла смотреть онлайн бесплатно в хорошем качестве


    Вы не можете начинать темы
    Вы не можете отвечать на сообщения
    Вы не можете редактировать свои сообщения
    Вы не можете удалять свои сообщения
    Вы не можете голосовать в опросах
    Вы не можете прикреплять файлы к сообщениям
    Вы можете скачивать файлы