1 сезон

3 сезон

iTunes

1

iTunes

MVO

iTunes

13

1 сезон

RePack

30

Deluxe

pack

Лицензия

ВАЖНО

ИГРА 18+

pack

RePack

MK11

RePack

jed

RePack

fifa19

RePack

RDR2

RePack

NEED FOR SPEED™ PAYBACK

4 сезон

9 сезон

Бесстыжие 9 сезон

Все сериалы

все сериалы на PB.wtf

RePack

FAR CRY 5

Anonymous, доброй ночи, мы катастрофически не успеваем собрать деньги на оплату серверов, помогите нам пожалуйста 5,10,15р., для нас важна любая помощь . В качестве благодарности мы отключим Вам всю рекламу на сайте (укажите свой ник в строку Ваше имя)!

×
  
Magnet ссылка

Эволюция / Évolution (Люсиль Адзиалилович) [2015, ужасы, детектив, BDRip-AVC] Профессиональный многоголосый [Лицензия / iTunes] R.G.Resident pb.wtf

Эволюция через торрент pb.wtf

Размер: 1.35 GB | Добавлен: 4 года 6 мес. назад | Торрент скачан:274 раза
Скачать  

04-01-2017 06:25 Эволюция Скачать торрент  

Эволюция / Évolution
Год выпуска: 2015
Страна: Франция, Бельгия, Испания
Жанр: ужасы, детектив
Продолжительность: 01:22:53
Перевод: Профессиональный многоголосый [Лицензия / iTunes]
Субтитры: английские (full)
Режиссер: Люсиль Адзиалилович
В ролях:

Макс Бребант (Nicolas), Роксана Дюран (Stella), Жюли-Мари Парментье (La mère), Мэтью Гольдфельд (Victor), Ниссим Ренард (Franck), Pablo-Noé Etienne (Le 4e garçon), Nathalie Legosles (Le docteur), Шанталь Эме, Laura Ballesteros, Eric Batlle, Mafer Blanco, Anna Broock
Описание:
11-летний Николас живет со своей матерью на изолированном острове, населенном такими же мальчиками и их мамами. Николас исследует морское дно, чтобы найти там рыб, но находит тело. Или ему это только показалось, и вместо тела была лишь морская звезда? С каждым днем у Николаса появляется все больше вопросов и подозрений. Мальчиков помещают в больницу, в чьих зеленых стенах детей как будто бы от чего-то лечат, а, может, на самом деле женщины проводят над ними странный эксперимент, чтобы избавиться от собственного бремени материнства. Эволюция заходит туда, куда мы не могли себе представить. Синяя вода, белые дома, тени, желтый свет - дух захватывает от кадров невероятной красоты. Но тут же рядом иглы вонзаются в кожу, из носа течет кровь, мутирует тело.
Мировая премьера: 14 сентября 2015

Качество: BDRip-AVC Rip by
Формат: MKV
Видео: AVC, 1024x428 (2.40:1), 1500 kbps, 24 fps, 0,143 bpp
Аудио №1: русский / AC3 / 5.1 / 48 kHz / 384 kbps /
Аудио №2: французский / AC3 / 5.1 / 48 kHz / 448 kbps /
General
Unique ID : 252562104314961101227332373337785414625 (0xBE01B123C03332A1AAE80DC45F4EB3E1)
Complete name : D:\download\EVOLUTION.2015.BDRip-AVC by schultz R.G.Resident.mkv
Format : Matroska
Format version : Version 4 / Version 2
File size : 1.35 GiB
Duration : 1 h 22 min
Overall bit rate : 2 329 kb/s
Encoded date : UTC 2017-01-04 06:40:43
Writing application : mkvmerge v8.9.0 ('Father Daughter') 64bit
Writing library : libebml v1.3.3 + libmatroska v1.4.4

Video
ID : 1
Format : AVC
Format/Info : Advanced Video Codec
Format profile : High@L4.1
Format settings, CABAC : Yes
Format settings, ReFrames : 12 frames
Codec ID : V_MPEG4/ISO/AVC
Duration : 1 h 22 min
Bit rate : 1 500 kb/s
Width : 1 024 pixels
Height : 428 pixels
Display aspect ratio : 2.40:1
Frame rate mode : Constant
Frame rate : 24.000 FPS
Color space : YUV
Chroma subsampling : 4:2:0
Bit depth : 8 bits
Scan type : Progressive
Bits/(Pixel*Frame) : 0.143
Stream size : 889 MiB (64%)
Writing library : x264 core 146 r2538 121396c
Encoding settings : cabac=1 / ref=12 / deblock=1:-3:-3 / analyse=0x3:0x113 / me=umh / subme=11 / psy=1 / psy_rd=1.00:0.00 / mixed_ref=1 / me_range=48 / chroma_me=1 / trellis=2 / 8x8dct=1 / cqm=0 / deadzone=21,11 / fast_pskip=0 / chroma_qp_offset=-2 / threads=12 / lookahead_threads=3 / sliced_threads=0 / nr=0 / decimate=0 / interlaced=0 / bluray_compat=0 / constrained_intra=0 / bframes=11 / b_pyramid=2 / b_adapt=2 / b_bias=0 / direct=3 / weightb=1 / open_gop=0 / weightp=2 / keyint=240 / keyint_min=24 / scenecut=40 / intra_refresh=0 / rc_lookahead=40 / rc=2pass / mbtree=1 / bitrate=1500 / ratetol=1.0 / qcomp=0.60 / qpmin=0 / qpmax=69 / qpstep=4 / cplxblur=20.0 / qblur=0.5 / vbv_maxrate=50000 / vbv_bufsize=62500 / nal_hrd=none / filler=0 / ip_ratio=1.40 / aq=1:1.00
Language : English
Default : Yes
Forced : No

Audio #1
ID : 2
Format : AC-3
Format/Info : Audio Coding 3
Mode extension : CM (complete main)
Format settings, Endianness : Big
Codec ID : A_AC3
Duration : 1 h 21 min
Bit rate mode : Constant
Bit rate : 384 kb/s
Channel(s) : 6 channels
Channel positions : Front: L C R, Side: L R, LFE
Sampling rate : 48.0 kHz
Frame rate : 31.250 FPS (1536 spf)
Compression mode : Lossy
Stream size : 225 MiB (16%)
Language : Russian
Default : Yes
Forced : No

Audio #2
ID : 3
Format : AC-3
Format/Info : Audio Coding 3
Mode extension : CM (complete main)
Format settings, Endianness : Big
Codec ID : A_AC3
Duration : 1 h 22 min
Bit rate mode : Constant
Bit rate : 448 kb/s
Channel(s) : 6 channels
Channel positions : Front: L C R, Side: L R, LFE
Sampling rate : 48.0 kHz
Frame rate : 31.250 FPS (1536 spf)
Compression mode : Lossy
Stream size : 266 MiB (19%)
Language : French
Default : No
Forced : No

Text
ID : 4
Format : UTF-8
Codec ID : S_TEXT/UTF8
Codec ID/Info : UTF-8 Plain Text
Duration : 1 h 11 min
Bit rate : 4 b/s
Count of elements : 138
Stream size : 2.27 KiB (0%)
Title : full
Language : English
Default : No
Forced : No

Menu
00:00:00.000 : en:00:00:00.000
00:08:40.038 : en:00:08:40.038
00:15:18.500 : en:00:15:18.500
00:23:10.000 : en:00:23:10.000
00:30:34.500 : en:00:30:34.500
00:39:09.541 : en:00:39:09.541
00:47:05.000 : en:00:47:05.000
00:54:25.875 : en:00:54:25.875
01:03:08.750 : en:01:03:08.750
01:11:06.916 : en:01:11:06.916

pb.wtf



Скачать Эволюция через торрент http://i77.fastpic.ru/big/2016/0417/a7/808a646271c761f7c7d87df3d366b3a7.png Скачать фильм Эволюция через торрент бесплантно в хорошем качестве Описание: 11-летний Николас живет со своей матерью на изолированном острове, населенном такими же мальчиками и их мамами. Николас исследует ... 8.2 10 10
Info! Золотая раздача, скачанное не засчитывается.
Торрент: Зарегистрирован [2017-01-04 06:25] · скачан: 274 раз
Статус: √ проверено
Размер: 1.35 GB
Как cкачать? Как скачать Эволюция через торрент | UTorrent

28-11-2019 20:33  

Отключить всю рекламу на сайте

04-01-2017 19:57 Эволюция Скачать торрент  

не теряйте на это г время.pb.wtf



    Дорогой пользователь! Огромная просьба, поблагодарите релизера, оцените раздачу и оставьте свои комментарий, если Вы скачали Эволюция через торрент бесплатно! Внесите свою лепту в развитие PiratBit!
    Комментировать посты могут только пользователи прошедшие не сложную регистрацию
    Показать сообщения:    

    Эволюция через торрент
    Скачать бесплатно Эволюция
    Эволюция скачать торрент
    Эволюция смотреть онлайн
    Cкачать фильм Эволюция бесплатно
    Эволюция скачать торрент в хорошем качестве
    Эволюция смотреть онлайн бесплатно в хорошем качестве


    Вы не можете начинать темы
    Вы не можете отвечать на сообщения
    Вы не можете редактировать свои сообщения
    Вы не можете удалять свои сообщения
    Вы не можете голосовать в опросах
    Вы не можете прикреплять файлы к сообщениям
    Вы можете скачивать файлы