Ссылка на приватное зеркало нашего сайта всего за 1$. Внимание количество ограничено!!!

2 сезон

iTunes

1 сезон

1

iTunes

iTunes

iTunes

1 сезон

RePack

30

ИГРА 18+

pack

ВАЖНО

!!Акция!!

Alien_RageХит недели

RePack

MK11
pack

Забери бонус

RePack

jed

!!Акция!!

Alien_Rage

RePack

fifa19

RePack

Assassins Creed: Odyssey

RePack

NEED FOR SPEED™ PAYBACK

4 сезон

9 сезон

Бесстыжие 9 сезон

Все сериалы

все сериалы на PB.wtf

RePack

FAR CRY 5
  

Проклятие куклы Роберт / The Curse of Robert the Doll (Эндрю Джонс) [2016 г,ужасы,триллер, DVDRip] Авторский одноголосый [А. Дольский] pb.wtf

Проклятие куклы Роберт через торрент pb.wtf

Размер: 1.35 GB | Добавлен: 3 года 9 мес. назад | Торрент скачан:73 раза
Скачать  

04-01-2017 14:25 Проклятие куклы Роберт Скачать торрент  

Проклятие куклы Роберт / The Curse of Robert the Doll Год выпуска: 2016
Страна: Великобритания
Жанр: ужасы,триллер
Продолжительность: 01:19:53
Перевод: Авторский одноголосый А. Дольский
Субтитры: Отсутствуют

Режиссер: Эндрю Джонс

Премьера в мире: 12 сентября 2016

rating

В ролях: Найджел Барбер, Сьюзи Фрэнсис Гартон, Ли Бэйн, Тиффани Чери, Крис Белл, Бобби Коул, Ричард Бурман, Фелисити Бойлетт

Описание: Студентка устраивается на работу в музей, где много странных экспонатов. Поначалу она не придает значения всякого рода случайностям, но со временем ее беспокойство только возрастает, особенно, когда среди этих же экспонатов она замечает не менее странную куклу с именем Роберт. Все самое непредвиденное начнется в одну из ночей, когда кукла решит познакомиться поближе...

Доп. информация: Рекламы Нет!!!

Качество: DVDRip
Формат: AVI
Видео кодек: XviD
Аудио кодек: MP3, AC3
Видео: XviD, 1 877 kb/s, 720x304, 25.000 FPS,8 bits
Аудио#1: MP3, 224 Kb/s (2 ch),44.1 kHz (Rus)
Аудио#2: AC3, 320 Kb/s (2 ch), 48.0 kHz (Eng)
скриншот  скриншот  скриншот  скриншот  скриншот  





General
Complete name : D:\The Curse of Robert the Doll (2016) DVDRip.avi
Format : AVI
Format/Info : Audio Video Interleave
Format profile : OpenDML
Format settings : rec
File size : 1.35 GiB
Duration : 1 h 19 min
Overall bit rate : 2 427 kb/s
Writing application : AVI-Mux GUI 1.17.8.3, Feb 16 201019:42:50

Video
ID : 0
Format : MPEG-4 Visual
Format profile : Advanced Simple@L5
Format settings, BVOP : 2
Format settings, QPel : No
Format settings, GMC : 3 warppoints
Format settings, Matrix : Default (H.263)
Muxing mode : Packed bitstream
Codec ID : XVID
Codec ID/Hint : XviD
Duration : 1 h 19 min
Bit rate : 1 877 kb/s
Width : 720 pixels
Height : 304 pixels
Display aspect ratio : 2.35:1
Frame rate : 25.000 FPS
Color space : YUV
Chroma subsampling : 4:2:0
Bit depth : 8 bits
Scan type : Progressive
Compression mode : Lossy
Bits/(Pixel*Frame) : 0.343
Stream size : 1.05 GiB (77%)
Writing library : XviD 62

Audio #1
ID : 1
Format : MPEG Audio
Format version : Version 1
Format profile : Layer 3
Codec ID : 55
Codec ID/Hint : MP3
Duration : 1 h 19 min
Bit rate mode : Constant
Bit rate : 224 kb/s
Channel(s) : 2 channels
Sampling rate : 44.1 kHz
Compression mode : Lossy
Stream size : 128 MiB (9%)
Alignment : Aligned on interleaves
Interleave, duration : 381 ms (9.52 video frames)
Interleave, preload duratio : 208 ms
Writing library : LAMELAME_MAJOR_VERSI

Audio #2
ID : 2
Format : AC-3
Format/Info : Audio Coding 3
Mode extension : CM (complete main)
Format settings, Endianness : Big
Codec ID : 2000
Duration : 1 h 19 min
Bit rate mode : Constant
Bit rate : 320 kb/s
Channel(s) : 2 channels
Channel positions : Front: L R
Sampling rate : 48.0 kHz
Frame rate : 31.250 FPS (1536 spf)
Bit depth : 16 bits
Compression mode : Lossy
Stream size : 183 MiB (13%)
Alignment : Aligned on interleaves
Interleave, duration : 64 ms (1.60 video frames)
Interleave, preload duratio : 192 ms
Title : The.Curse.of.Robert.the.Doll.2016.DVDRip.x264-EiDER

pb.wtf



Скачать Проклятие куклы Роберт через торрент http://pic1.kartinco.top/images/11/plwap.jpg Скачать фильм Проклятие куклы Роберт через торрент бесплантно в хорошем качестве Описание: Студентка устраивается на работу в музей, где много странных экспонатов. Поначалу она не придает значения всякого рода ... 10 10 6
Info! Золотая раздача, скачанное не засчитывается.
Торрент: Зарегистрирован [2017-01-04 14:25] · скачан: 73 раз
Статус: √ проверено
Размер: 1.35 GB
Как cкачать? Как скачать Проклятие куклы Роберт через торрент | qTorrent

% Раздел Тема Автор DL S | L
# Фильмы (мультфильмы) cо спонсором показа (Новинки AVI/MKV) [ 2.44 GB ] Проклятие куклы Роберт / The Curse of Robert the Doll [2016 BDRip 720p] MVO [GreenРай Studio] bober100 Скачать
1 | 0
T Фильмы (мультфильмы) cо спонсором показа (Новинки AVI/MKV) [ 1.34 GB ] Проклятие куклы Роберт / The Curse of Robert the Doll [2016 HDRip] MVO [GreenРай Studio] bober100 Скачать
1 | 0

28-11-2019 20:33  

Отключить всю рекламу на сайте

04-01-2017 15:27 Проклятие куклы Роберт Скачать торрент  

Как обычно суть одна и таже pb.wtf



04-01-2017 15:57 Проклятие куклы Роберт Скачать торрент  

еще одна породия на Чаки?pb.wtf



    Дорогой пользователь! Огромная просьба, поблагодарите релизера, оцените раздачу и оставьте свои комментарий, если Вы скачали Проклятие куклы Роберт через торрент бесплатно! Внесите свою лепту в развитие PiratBit!
    Комментировать посты могут только пользователи прошедшие не сложную регистрацию
    Показать сообщения:    

    Проклятие куклы Роберт через торрент
    Скачать бесплатно Проклятие куклы Роберт
    Проклятие куклы Роберт скачать торрент
    Проклятие куклы Роберт смотреть онлайн
    Cкачать фильм Проклятие куклы Роберт бесплатно
    Проклятие куклы Роберт скачать торрент в хорошем качестве
    Проклятие куклы Роберт смотреть онлайн бесплатно в хорошем качестве


    Вы не можете начинать темы
    Вы не можете отвечать на сообщения
    Вы не можете редактировать свои сообщения
    Вы не можете удалять свои сообщения
    Вы не можете голосовать в опросах
    Вы не можете прикреплять файлы к сообщениям
    Вы можете скачивать файлы