2 сезон

iTunes

1 сезон

1

iTunes

iTunes

iTunes

1 сезон

RePack

30

ИГРА 18+

pack

ВАЖНО

!!Акция!!

Alien_RageХит недели

RePack

MK11
pack

Забери бонус

RePack

jed

!!Акция!!

Alien_Rage

RePack

fifa19

RePack

Assassins Creed: Odyssey

RePack

NEED FOR SPEED™ PAYBACK

4 сезон

9 сезон

Бесстыжие 9 сезон

Все сериалы

все сериалы на PB.wtf

RePack

FAR CRY 5
  

Дневная красавица / Belle de jour (Луис Бунюэль) [1967, драма, BDRip 1080p by msltel] 2 x MVO, 2 x AVO pb.wtf

Дневная красавица через торрент pb.wtf

Размер: 14.75 GB | Добавлен: 3 года 9 мес. назад | Торрент скачан:18 раз
Скачать  

04-01-2017 14:31 Дневная красавица Скачать торрент  

Название: Дневная красавица
Оригинальное название: Belle de jour
Год выпуска: 1967
Страна: Франция, Италия
Жанр: драма
Продолжительность: 01:40:14
Перевод: профессиональный многоголосый, авторский

Режиссёр: Луис Бунюэль

В ролях: Катрин Денёв, Жан Сорель, Мишель Пикколи, Женевьев Паж, Франсиско Рабаль, Пьер Клементи, Жорж Маршаль, Маша Мериль, Франсуаза Фабиан, Мария Латур

Описание: Верная жена и добропорядочная хозяйка Северина Серизи однажды решается на невероятный и совершенно аморальный эксперимент. Устав от собственной непогрешимости, она тайно поступает на работу в публичный дом некой мадам Анаис. Но так как по вечерам и по ночам Северина продолжает играть свою привычную роль буржуазной кошечки, в борделе она получает имя «Дневная красавица». Как любая проститутка, она исполняет все желания своих клиентов, а затем возвращается к домашнему очагу. Таким образом, Северина начинает вести двойную жизнь, и никто из её близких даже не догадывается о том, как Северина проводит свои дни... Фильм снят по мотивам романа Жозефа Кесселя «Дневная красавица» (Belle de jour, 1928).



Качество: BDRip 1080p
Формат: MKV
Видео: MPEG-4 AVC, 18.9 Mбит/с, 1800x1080, 23,976 кадра/с
Аудио 1: русский, DTS, 768 kbps, 2 ch, 48 kHz [профессиональный многоголосый, DVD Magic]
Аудио 2: русский, DTS, 768 kbps, 2 ch, 48 kHz [профессиональный многоголосый, Ruscico]
Аудио 3: русский, AC3, 192 kbps, 1 ch, 48 kHz [авторский, Андрей Гаврилов]
Аудио 4: русский, AC3, 192 kbps, 2 ch, 48 kHz [авторский, Юрий Живов]
Аудио 5: французский, AC3, 192 kbps, 1 ch, 48 kHz [оригинал]
Субтитры 1: русские
Субтитры 2: английские
Имеются неименованные главы/чаптеры.
Общее
Уникальный идентификатор : 217223805057005896208555010382286537643 (0xA36BC877E2999BA2A9D74398C917C3AB)
Полное имя : D:\Video\Дневная красавица.1967.BDRip.1080p by msltel.mkv
Формат : Matroska
Версия формата : Version 4 / Version 2
Размер файла : 14,7 Гбайт
Продолжительность : 1 ч. 40 м.
Общий поток : 21,1 Мбит/сек
Название фильма : Rip by msltel
Дата кодирования : UTC 2017-01-04 13:00:18
Программа кодирования : mkvmerge v8.2.0 ('World of Adventure') 64bit
Библиотека кодирования : libebml v1.3.1 + libmatroska v1.4.2

Видео
Идентификатор : 1
Формат : AVC
Формат/Информация : Advanced Video Codec
Профиль формата : High@L4.1
Параметр CABAC формата : Да
Параметр ReFrames формата : 4 кадра
Идентификатор кодека : V_MPEG4/ISO/AVC
Продолжительность : 1 ч. 40 м.
Битрейт : 18,9 Мбит/сек
Ширина : 1800 пикселей
Высота : 1080 пикселей
Соотношение сторон : 5:3
Режим частоты кадров : Постоянный
Частота кадров : 23,976 (24000/1001) кадра/сек
Цветовое пространство : YUV
Субдискретизация насыщенности : 4:2:0
Битовая глубина : 8 бит
Тип развёртки : Прогрессивная
Бит/(Пиксели*Кадры) : 0.407
Размер потока : 13,3 Гбайт (90%)
Библиотека кодирования : x264 core 146 r2538 121396c
Настройки программы : cabac=1 / ref=4 / deblock=1:-3:-3 / analyse=0x3:0x113 / me=umh / subme=10 / psy=1 / psy_rd=1.00:0.15 / mixed_ref=1 / me_range=32 / chroma_me=1 / trellis=2 / 8x8dct=1 / cqm=0 / deadzone=21,11 / fast_pskip=0 / chroma_qp_offset=-3 / threads=6 / lookahead_threads=1 / sliced_threads=0 / nr=0 / decimate=1 / interlaced=0 / bluray_compat=0 / constrained_intra=0 / bframes=11 / b_pyramid=2 / b_adapt=2 / b_bias=0 / direct=1 / weightb=0 / open_gop=0 / weightp=2 / keyint=230 / keyint_min=23 / scenecut=40 / intra_refresh=0 / rc_lookahead=40 / rc=crf / mbtree=0 / crf=21.5 / qcomp=0.60 / qpmin=0 / qpmax=69 / qpstep=4 / vbv_maxrate=50000 / vbv_bufsize=62500 / crf_max=0.0 / nal_hrd=none / filler=0 / ip_ratio=1.40 / pb_ratio=1.30 / aq=1:1.00
Язык : French
Default : Да
Forced : Нет

Аудио #1
Идентификатор : 2
Формат : DTS
Формат/Информация : Digital Theater Systems
Режим : 16
Параметр Endianness формата : Big
Идентификатор кодека : A_DTS
Продолжительность : 1 ч. 40 м.
Вид битрейта : Постоянный
Битрейт : 768 Кбит/сек
Каналы : 2 канала
Расположение каналов : Front: L R
Частота : 48,0 КГц
Частота кадров : 93,750 кадра/сек (512 spf)
Битовая глубина : 16 бит
Метод сжатия : С потерями
Размер потока : 550 Мбайт (4%)
Заголовок : MVO (DVD Magic)
Язык : Russian
Default : Да
Forced : Нет

Аудио #2
Идентификатор : 3
Формат : DTS
Формат/Информация : Digital Theater Systems
Режим : 16
Параметр Endianness формата : Big
Идентификатор кодека : A_DTS
Продолжительность : 1 ч. 40 м.
Вид битрейта : Постоянный
Битрейт : 768 Кбит/сек
Каналы : 2 канала
Расположение каналов : Front: L R
Частота : 48,0 КГц
Частота кадров : 93,750 кадра/сек (512 spf)
Битовая глубина : 24 бит
Метод сжатия : С потерями
Размер потока : 551 Мбайт (4%)
Заголовок : MVO (Ruscico)
Язык : Russian
Default : Нет
Forced : Нет

Аудио #3
Идентификатор : 4
Формат : AC-3
Формат/Информация : Audio Coding 3
Расширение режима : CM (complete main)
Параметр Endianness формата : Big
Идентификатор кодека : A_AC3
Продолжительность : 1 ч. 40 м.
Вид битрейта : Постоянный
Битрейт : 192 Кбит/сек
Каналы : 1 канал
Расположение каналов : Front: C
Частота : 48,0 КГц
Частота кадров : 31,250 кадров/сек (1536 spf)
Метод сжатия : С потерями
Размер потока : 138 Мбайт (1%)
Заголовок : AVO (Андрей Гаврилов)
Язык : Russian
Default : Нет
Forced : Нет

Аудио #4
Идентификатор : 5
Формат : AC-3
Формат/Информация : Audio Coding 3
Расширение режима : CM (complete main)
Параметр Endianness формата : Big
Идентификатор кодека : A_AC3
Продолжительность : 1 ч. 40 м.
Вид битрейта : Постоянный
Битрейт : 192 Кбит/сек
Каналы : 2 канала
Расположение каналов : Front: L R
Частота : 48,0 КГц
Частота кадров : 31,250 кадров/сек (1536 spf)
Метод сжатия : С потерями
Размер потока : 138 Мбайт (1%)
Заголовок : AVO (Юрий Живов)
Язык : Russian
Default : Нет
Forced : Нет

Аудио #5
Идентификатор : 6
Формат : AC-3
Формат/Информация : Audio Coding 3
Расширение режима : CM (complete main)
Параметр Endianness формата : Big
Идентификатор кодека : A_AC3
Продолжительность : 1 ч. 40 м.
Вид битрейта : Постоянный
Битрейт : 192 Кбит/сек
Каналы : 1 канал
Расположение каналов : Front: C
Частота : 48,0 КГц
Частота кадров : 31,250 кадров/сек (1536 spf)
Метод сжатия : С потерями
Размер потока : 138 Мбайт (1%)
Заголовок : original
Язык : French
Default : Нет
Forced : Нет

Текст #1
Идентификатор : 7
Формат : UTF-8
Идентификатор кодека : S_TEXT/UTF8
Идентификатор кодека/Информация : UTF-8 Plain Text
Продолжительность : 1 ч. 36 м.
Битрейт : 72 бит/сек
Count of elements : 919
Размер потока : 51,8 Кбайт (0%)
Заголовок : русские
Язык : Russian
Default : Нет
Forced : Нет

Текст #2
Идентификатор : 8
Формат : UTF-8
Идентификатор кодека : S_TEXT/UTF8
Идентификатор кодека/Информация : UTF-8 Plain Text
Продолжительность : 1 ч. 36 м.
Битрейт : 44 бит/сек
Count of elements : 1085
Размер потока : 31,9 Кбайт (0%)
Заголовок : английские
Язык : English
Default : Нет
Forced : Нет

Меню
00:00:00.000 : :Chapter 01
00:02:03.665 : :Chapter 02
00:05:39.589 : :Chapter 03
00:07:34.078 : :Chapter 04
00:10:56.906 : :Chapter 05
00:16:18.310 : :Chapter 06
00:18:29.775 : :Chapter 07
00:24:45.442 : :Chapter 08
00:34:21.350 : :Chapter 09
00:36:56.589 : :Chapter 10
00:38:10.246 : :Chapter 11
00:45:47.369 : :Chapter 12
00:49:52.572 : :Chapter 13
00:56:31.429 : :Chapter 14
00:59:21.182 : :Chapter 15
01:08:11.962 : :Chapter 16
01:16:34.006 : :Chapter 17
01:20:42.629 : :Chapter 18
01:22:08.131 : :Chapter 19
01:23:54.195 : :Chapter 20
01:28:08.950 : :Chapter 21
01:32:13.402 : :Chapter 22
01:38:07.298 : :Chapter 23
01:40:14.008 : :Chapter 24
pb.wtf



Скачать Дневная красавица через торрент http://s020.radikal.ru/i716/1701/d0/32ea1ae5b881.jpg Скачать фильм Дневная красавица через торрент бесплантно в хорошем качестве Описание: Верная жена и добропорядочная хозяйка Северина Серизи однажды решается на невероятный и совершенно аморальный эксперимент. Устав ... 10 10 4
Info! Золотая раздача, скачанное не засчитывается.
Торрент: Зарегистрирован [2017-01-04 14:31] · скачан: 18 раз
Статус: √ проверено
Размер: 14.75 GB
Как cкачать? Как скачать Дневная красавица через торрент | qTorrent

% Раздел Тема Автор DL S | L
Фильмы [HD 720p, 1080p] (Хороший звук DUB, MVO) [ 6.07 GB ] Дневная красавица / Belle de jour [1967 BDRip 720p by msltel] 2 x MVO 2 x AVO msltel Скачать
1 | 0

28-11-2019 20:33  

Отключить всю рекламу на сайте

05-01-2017 02:47 Дневная красавица Скачать торрент  

На втором скрине венцеслав чтоли?!))) ахах)pb.wtf



    Дорогой пользователь! Огромная просьба, поблагодарите релизера, оцените раздачу и оставьте свои комментарий, если Вы скачали Дневная красавица через торрент бесплатно! Внесите свою лепту в развитие PiratBit!
    Комментировать посты могут только пользователи прошедшие не сложную регистрацию
    Показать сообщения:    

    Дневная красавица через торрент
    Скачать бесплатно Дневная красавица
    Дневная красавица скачать торрент
    Дневная красавица смотреть онлайн
    Cкачать фильм Дневная красавица бесплатно
    Дневная красавица скачать торрент в хорошем качестве
    Дневная красавица смотреть онлайн бесплатно в хорошем качестве


    Вы не можете начинать темы
    Вы не можете отвечать на сообщения
    Вы не можете редактировать свои сообщения
    Вы не можете удалять свои сообщения
    Вы не можете голосовать в опросах
    Вы не можете прикреплять файлы к сообщениям
    Вы можете скачивать файлы