2 сезон

iTunes

1 сезон

1

iTunes

iTunes

iTunes

1 сезон

RePack

30

ИГРА 18+

pack

ВАЖНО

!!Акция!!

Alien_RageХит недели

RePack

MK11
pack

Забери бонус

RePack

jed

!!Акция!!

Alien_Rage

RePack

fifa19

RePack

Assassins Creed: Odyssey

RePack

NEED FOR SPEED™ PAYBACK

4 сезон

9 сезон

Бесстыжие 9 сезон

Все сериалы

все сериалы на PB.wtf

RePack

FAR CRY 5
  

Дом напротив / Сосед / The Neighbor (Маркус Данстэн) [2016, ужасы, триллер, криминал, BDRip 1080p] Дубляж - [Лицензия / iTunes] pb.wtf

Дом напротив через торрент pb.wtf

Размер: 8.66 GB | Добавлен: 3 года 9 мес. назад | Торрент скачан:299 раз
Скачать  

05-01-2017 07:36 Дом напротив Скачать торрент  

Дом напротив / Сосед / The Neighbor

Год выпуска: 2016
Страна: США
Жанр: ужасы, триллер, криминал
Продолжительность: 01:26:59
Перевод: Дубляж - [Лицензия / iTunes]
Субтитры: английские (Full)
Режиссер: Маркус Данстэн
В ролях:

Джош Стюарт (John), Люк Эдвардс (Cooper), Мелисса Болона (Sarah), Билл Ингвалл (Troy), Александра Эссоу (Rosie), Жаклин Флеминг (Officer Burns), Скипп Саддат (Uncle Neil), Ронни Джин Блевинс (Harley), Дэвид Каллауэй (Guillermo), Хезер Уильямс (Debrah), Бен Мэзени (Punk), Артриал Кларк (Derrick)
Описание:
Джон и Рози мечтают о счастливой жизни. Осталось закончить одно дело и можно оставить прошлое позади. Но у судьбы другие планы...
Рейтинг:

Качество: BDRip 1080p
Формат: MKV
Видео: AVC, 1920x804 (2.40:1), 13196 kbps, 23,976 fps, 0,357 bpp
Аудио №1: русский / AC3 / 5.1 / 48 kHz / 384 kbps / |Дубляж, iTunes|
Аудио №2: английский / AC3 / 5.1 / 48 kHz / 384 kbps /
Навигация по главам: есть
Релиз от:
General
Unique ID : 197328636666658614139147044628938719836 (0x94741CEF267482728629DBC1D311825C)
Complete name : E:\The.Neighbor.2016.BDRip.1080p.ExKinoRay.mkv
Format : Matroska
Format version : Version 4 / Version 2
File size : 8.66 GiB
Duration : 1 h 26 min
Overall bit rate : 14.2 Mb/s
Movie name : The.Neighbor.2016 ***селезень***
Encoded date : UTC 2017-01-04 21:29:22
Writing application : mkvmerge v8.3.0 ('Over the Horizon') 64bit
Writing library : libebml v1.3.1 + libmatroska v1.4.2

Video
ID : 1
Format : AVC
Format/Info : Advanced Video Codec
Format profile : High@L4.1
Format settings, CABAC : Yes
Format settings, ReFrames : 5 frames
Codec ID : V_MPEG4/ISO/AVC
Duration : 1 h 26 min
Bit rate : 13.2 Mb/s
Width : 1 920 pixels
Height : 804 pixels
Display aspect ratio : 2.40:1
Frame rate mode : Constant
Frame rate : 23.976 (24000/1001) FPS
Color space : YUV
Chroma subsampling : 4:2:0
Bit depth : 8 bits
Scan type : Progressive
Bits/(Pixel*Frame) : 0.357
Stream size : 8.02 GiB (93%)
Title : The.Neighbor.2016 ***селезень***
Writing library : x264 core 146 r2538 121396c
Encoding settings : cabac=1 / ref=5 / deblock=1:-3:-3 / analyse=0x3:0x133 / me=tesa / subme=11 / psy=1 / psy_rd=1.00:0.00 / mixed_ref=1 / me_range=32 / chroma_me=1 / trellis=2 / 8x8dct=1 / cqm=0 / deadzone=21,11 / fast_pskip=0 / chroma_qp_offset=-2 / threads=60 / lookahead_threads=6 / sliced_threads=0 / nr=0 / decimate=0 / interlaced=0 / bluray_compat=0 / constrained_intra=0 / bframes=10 / b_pyramid=2 / b_adapt=2 / b_bias=0 / direct=3 / weightb=1 / open_gop=0 / weightp=2 / keyint=240 / keyint_min=23 / scenecut=40 / intra_refresh=0 / rc_lookahead=150 / rc=crf / mbtree=0 / crf=15.4 / qcomp=0.60 / qpmin=0 / qpmax=69 / qpstep=4 / vbv_maxrate=62500 / vbv_bufsize=78125 / crf_max=0.0 / nal_hrd=none / filler=0 / ip_ratio=1.40 / pb_ratio=1.30 / aq=1:0.80 / zones=119244,125006,b=0.2
Language : English
Default : Yes
Forced : No
Color range : Limited
Matrix coefficients : BT.709

Audio #1
ID : 2
Format : AC-3
Format/Info : Audio Coding 3
Mode extension : CM (complete main)
Format settings, Endianness : Big
Codec ID : A_AC3
Duration : 1 h 26 min
Bit rate mode : Constant
Bit rate : 384 kb/s
Channel(s) : 6 channels
Channel positions : Front: L C R, Side: L R, LFE
Sampling rate : 48.0 kHz
Frame rate : 31.250 FPS (1536 spf)
Compression mode : Lossy
Stream size : 239 MiB (3%)
Title : iTunes
Language : Russian
Default : Yes
Forced : No

Audio #2
ID : 3
Format : AC-3
Format/Info : Audio Coding 3
Mode extension : CM (complete main)
Format settings, Endianness : Big
Codec ID : A_AC3
Duration : 1 h 26 min
Bit rate mode : Constant
Bit rate : 384 kb/s
Channel(s) : 6 channels
Channel positions : Front: L C R, Side: L R, LFE
Sampling rate : 48.0 kHz
Frame rate : 31.250 FPS (1536 spf)
Compression mode : Lossy
Stream size : 239 MiB (3%)
Title : Original
Language : English
Default : No
Forced : No

Text
ID : 4
Format : UTF-8
Codec ID : S_TEXT/UTF8
Codec ID/Info : UTF-8 Plain Text
Title : Full
Language : English
Default : No
Forced : No

Menu
00:00:00.000 : en:Chapter 1
00:08:05.485 : en:Chapter 2
00:15:12.328 : en:Chapter 3
00:22:33.769 : en:Chapter 4
00:28:50.312 : en:Chapter 5
00:37:03.972 : en:Chapter 6
00:47:26.427 : en:Chapter 7
00:52:43.660 : en:Chapter 8
01:00:28.166 : en:Chapter 9
01:09:35.421 : en:Chapter 10
01:17:19.009 : en:Chapter 11
01:22:54.428 : en:Chapter 12
pb.wtf



Скачать Дом напротив через торрент http://i6.imageban.ru/out/2017/01/05/a23937f4ff3cd7ac8f72147c85499748.jpg Скачать фильм Дом напротив через торрент бесплантно в хорошем качестве Описание: Джон и Рози мечтают о счастливой жизни. Осталось закончить одно дело и можно оставить прошлое позади. Но у судьбы другие ... 9.8 10 12
Торрент: Зарегистрирован [2017-01-05 07:36] · скачан: 299 раз
Статус: √ проверено
Размер: 8.66 GB
Как cкачать? Как скачать Дом напротив через торрент | qTorrent

% Раздел Тема Автор DL S | L
Фильмы 2016 [DVDrip, WEB-DLRip, HDrip] (DUB, MVO) [ 1.42 GB ] Дом напротив / Сосед / The Neighbor [2016 BDRip] - Twi7ter Скачать
1 | 0

28-11-2019 20:33  

Отключить всю рекламу на сайте

    Дорогой пользователь! Огромная просьба, поблагодарите релизера, оцените раздачу и оставьте свои комментарий, если Вы скачали Дом напротив через торрент бесплатно! Внесите свою лепту в развитие PiratBit!
    Комментировать посты могут только пользователи прошедшие не сложную регистрацию
    Показать сообщения:    

    Дом напротив через торрент
    Скачать бесплатно Дом напротив
    Дом напротив скачать торрент
    Дом напротив смотреть онлайн
    Cкачать фильм Дом напротив бесплатно
    Дом напротив скачать торрент в хорошем качестве
    Дом напротив смотреть онлайн бесплатно в хорошем качестве


    Вы не можете начинать темы
    Вы не можете отвечать на сообщения
    Вы не можете редактировать свои сообщения
    Вы не можете удалять свои сообщения
    Вы не можете голосовать в опросах
    Вы не можете прикреплять файлы к сообщениям
    Вы можете скачивать файлы