2 сезон

iTunes

1 сезон

1

iTunes

iTunes

iTunes

1 сезон

RePack

30

ИГРА 18+

pack

ВАЖНО

!!Акция!!

Alien_RageХит недели

RePack

MK11
pack

Забери бонус

RePack

jed

!!Акция!!

Alien_Rage

RePack

fifa19

RePack

Assassins Creed: Odyssey

RePack

NEED FOR SPEED™ PAYBACK

4 сезон

9 сезон

Бесстыжие 9 сезон

Все сериалы

все сериалы на PB.wtf

RePack

FAR CRY 5
  

Вики Кристина Барселона / Vicky Cristina Barcelona (Вуди Аллен) [2008, драма, мелодрама, BDRip 720p by msltel] DUB, MVO, AVO pb.wtf

Вики Кристина Барселона через торрент pb.wtf

Размер: 4.58 GB | Добавлен: 3 года 9 мес. назад | Торрент скачан:64 раза
Скачать  

05-01-2017 08:09 Вики Кристина Барселона Скачать торрент  

Название: Вики Кристина Барселона
Оригинальное название: Vicky Cristina Barcelona
Год выпуска: 2008
Страна: Испания, США
Жанр: драма, мелодрама
Продолжительность: 01:36:44
Перевод: дублированный, профессиональный многоголосый, авторский

Режиссёр: Вуди Аллен

В ролях: Скарлетт Йоханссон, Хавьер Бардем, Пенелопа Крус, Ребекка Холл, Крис Мессина, Патришия Кларксон, Кристофер Ивэн Уэлш, Кевин Данн, Хулио Периллан, Хуан Куэсада, Ричард Салом, Мануэль Барсело, Хосе Мария Доменек, Эмилио Де Бенито, Ллол Бертран, Джоэль Джоан, Сильвия Сабате, Пабло Шрайбер, Кэрри Престон

Описание: Две молодые американки Вики и Кристина проводят свои летние каникулы в Барселоне и совершенно очарованы этим городом, а также одним молодым художником по имени Антонио. Вики старомодна и настроена на серьёзные отношения: ухаживания, свидания и свадебную фату в финале. Кристина сексуально раскрепощена, раскована и привлекательна в своей бунтарской сущности. Антонио не может определиться, его привлекают обе девушки. Отношения в любовном треугольнике становятся всё более запутанными, а тут ещё в игру вступает бывшая жена Антонио, обладающая весьма взрывным темпераментом, и похоже на то, что она не до конца отказалась от своих прав на бывшего мужа...



Качество: BDRip 720p
Формат: MKV
Видео: MPEG-4 AVC, 5245 Кбит/с, 1280x692, 23,976 кадра/с
Аудио 1: русский, AC3, 448 kbps, 6 ch, 48 kHz [дублированный]
Аудио 2: русский, AC3, 192 kbps, 2 ch, 48 kHz [профессиональный многоголосый, ОРТ]
Аудио 3: русский, AC3, 448 kbps, 3 ch, 48 kHz [авторский, Юрий Сербин]
Аудио 4: английский, AC3, 448 kbps, 3 ch, 48 kHz [оригинал]
Субтитры 1: русские
Субтитры 2: английские
Имеются неименованные главы/чаптеры.
Общее
Уникальный идентификатор : 215059912815509215162015723711212287839 (0xA1CB0858019DA3A4B16446216803F75F)
Полное имя : D:\Video\Вики Кристина Барселона.2008.BDRip.720p by msltel.mkv
Формат : Matroska
Версия формата : Version 4 / Version 2
Размер файла : 4,58 Гбайт
Продолжительность : 1 ч. 36 м.
Общий поток : 6784 Кбит/сек
Название фильма : Rip by msltel
Дата кодирования : UTC 2017-01-05 03:04:29
Программа кодирования : mkvmerge v8.2.0 ('World of Adventure') 64bit
Библиотека кодирования : libebml v1.3.1 + libmatroska v1.4.2

Видео
Идентификатор : 1
Формат : AVC
Формат/Информация : Advanced Video Codec
Профиль формата : High@L4.1
Параметр CABAC формата : Да
Параметр ReFrames формата : 9 кадров
Идентификатор кодека : V_MPEG4/ISO/AVC
Продолжительность : 1 ч. 36 м.
Битрейт : 5245 Кбит/сек
Ширина : 1280 пикселей
Высота : 692 пикселя
Соотношение сторон : 1,85:1
Режим частоты кадров : Постоянный
Частота кадров : 23,976 (24000/1001) кадра/сек
Цветовое пространство : YUV
Субдискретизация насыщенности : 4:2:0
Битовая глубина : 8 бит
Тип развёртки : Прогрессивная
Бит/(Пиксели*Кадры) : 0.247
Размер потока : 3,54 Гбайт (77%)
Библиотека кодирования : x264 core 146 r2538 121396c
Настройки программы : cabac=1 / ref=9 / deblock=1:-1:-1 / analyse=0x3:0x113 / me=umh / subme=10 / psy=1 / psy_rd=1.00:0.15 / mixed_ref=1 / me_range=32 / chroma_me=1 / trellis=2 / 8x8dct=1 / cqm=0 / deadzone=21,11 / fast_pskip=0 / chroma_qp_offset=-3 / threads=6 / lookahead_threads=1 / sliced_threads=0 / nr=0 / decimate=1 / interlaced=0 / bluray_compat=0 / constrained_intra=0 / bframes=8 / b_pyramid=2 / b_adapt=2 / b_bias=0 / direct=1 / weightb=0 / open_gop=0 / weightp=2 / keyint=230 / keyint_min=23 / scenecut=40 / intra_refresh=0 / rc_lookahead=40 / rc=crf / mbtree=0 / crf=17.8 / qcomp=0.60 / qpmin=0 / qpmax=69 / qpstep=4 / vbv_maxrate=50000 / vbv_bufsize=62500 / crf_max=0.0 / nal_hrd=none / filler=0 / ip_ratio=1.40 / pb_ratio=1.30 / aq=1:1.00
Язык : English
Default : Да
Forced : Нет

Аудио #1
Идентификатор : 2
Формат : AC-3
Формат/Информация : Audio Coding 3
Расширение режима : CM (complete main)
Параметр Endianness формата : Big
Идентификатор кодека : A_AC3
Продолжительность : 1 ч. 36 м.
Вид битрейта : Постоянный
Битрейт : 448 Кбит/сек
Каналы : 6 каналов
Расположение каналов : Front: L C R, Side: L R, LFE
Частота : 48,0 КГц
Частота кадров : 31,250 кадров/сек (1536 spf)
Метод сжатия : С потерями
Размер потока : 310 Мбайт (7%)
Заголовок : DUB (CP Digital)
Язык : Russian
Default : Да
Forced : Нет

Аудио #2
Идентификатор : 3
Формат : AC-3
Формат/Информация : Audio Coding 3
Расширение режима : CM (complete main)
Параметр Endianness формата : Big
Идентификатор кодека : A_AC3
Продолжительность : 1 ч. 36 м.
Вид битрейта : Постоянный
Битрейт : 192 Кбит/сек
Каналы : 2 канала
Расположение каналов : Front: L R
Частота : 48,0 КГц
Частота кадров : 31,250 кадров/сек (1536 spf)
Метод сжатия : С потерями
Размер потока : 133 Мбайт (3%)
Заголовок : MVO (OPT)
Язык : Russian
Default : Нет
Forced : Нет

Аудио #3
Идентификатор : 4
Формат : AC-3
Формат/Информация : Audio Coding 3
Расширение режима : CM (complete main)
Параметр Endianness формата : Big
Идентификатор кодека : A_AC3
Продолжительность : 1 ч. 36 м.
Вид битрейта : Постоянный
Битрейт : 448 Кбит/сек
Каналы : 3 канала
Расположение каналов : Front: L R, Back: C
Частота : 48,0 КГц
Частота кадров : 31,250 кадров/сек (1536 spf)
Метод сжатия : С потерями
Размер потока : 310 Мбайт (7%)
Заголовок : AVO (Юрий Сербин)
Язык : Russian
Default : Нет
Forced : Нет

Аудио #4
Идентификатор : 5
Формат : AC-3
Формат/Информация : Audio Coding 3
Расширение режима : CM (complete main)
Параметр Endianness формата : Big
Идентификатор кодека : A_AC3
Продолжительность : 1 ч. 36 м.
Вид битрейта : Постоянный
Битрейт : 448 Кбит/сек
Каналы : 3 канала
Расположение каналов : Front: L R, Back: C
Частота : 48,0 КГц
Частота кадров : 31,250 кадров/сек (1536 spf)
Метод сжатия : С потерями
Размер потока : 310 Мбайт (7%)
Заголовок : original
Язык : English
Default : Нет
Forced : Нет

Текст #1
Идентификатор : 6
Формат : UTF-8
Идентификатор кодека : S_TEXT/UTF8
Идентификатор кодека/Информация : UTF-8 Plain Text
Продолжительность : 1 ч. 32 м.
Битрейт : 118 бит/сек
Count of elements : 1260
Размер потока : 80,1 Кбайт (0%)
Заголовок : русские
Язык : Russian
Default : Нет
Forced : Нет

Текст #2
Идентификатор : 7
Формат : UTF-8
Идентификатор кодека : S_TEXT/UTF8
Идентификатор кодека/Информация : UTF-8 Plain Text
Продолжительность : 1 ч. 31 м.
Битрейт : 84 бит/сек
Count of elements : 1720
Размер потока : 56,3 Кбайт (0%)
Заголовок : английские
Язык : English
Default : Нет
Forced : Нет

Меню
00:00:00.000 : :Chapter 01
00:05:09.433 : :Chapter 02
00:12:36.588 : :Chapter 03
00:15:00.608 : :Chapter 04
00:18:31.484 : :Chapter 05
00:22:49.409 : :Chapter 06
00:28:46.056 : :Chapter 07
00:35:29.460 : :Chapter 08
00:40:17.873 : :Chapter 09
00:46:00.257 : :Chapter 10
00:48:06.007 : :Chapter 11
00:55:42.797 : :Chapter 12
01:02:37.211 : :Chapter 13
01:08:12.796 : :Chapter 14
01:12:42.316 : :Chapter 15
01:20:48.510 : :Chapter 16
01:26:53.457 : :Chapter 17
01:33:22.595 : :Chapter 18
01:36:44.215 : :Chapter 19
pb.wtf



Скачать Вики Кристина Барселона через торрент http://s19.radikal.ru/i192/1701/88/8366d569aa9e.png Скачать фильм Вики Кристина Барселона через торрент бесплантно в хорошем качестве Описание: Две молодые американки Вики и Кристина проводят свои летние каникулы в Барселоне и совершенно очарованы этим городом, а также ... 10 10 6
Info! Золотая раздача, скачанное не засчитывается.
Торрент: Зарегистрирован [2017-01-05 08:09] · скачан: 64 раз
Статус: √ проверено
Размер: 4.58 GB
Как cкачать? Как скачать Вики Кристина Барселона через торрент | qTorrent

% Раздел Тема Автор DL S | L
Фильмы [HD 720p, 1080p] (Хороший звук DUB, MVO) [ 13.04 GB ] Вики Кристина Барселона / Vicky Cristina Barcelona [2008 BDRip 1080p by msltel] DUB MVO AVO msltel Скачать
2 | 0

28-11-2019 20:33  

Отключить всю рекламу на сайте

    Дорогой пользователь! Огромная просьба, поблагодарите релизера, оцените раздачу и оставьте свои комментарий, если Вы скачали Вики Кристина Барселона через торрент бесплатно! Внесите свою лепту в развитие PiratBit!
    Комментировать посты могут только пользователи прошедшие не сложную регистрацию
    Показать сообщения:    

    Вики Кристина Барселона через торрент
    Скачать бесплатно Вики Кристина Барселона
    Вики Кристина Барселона скачать торрент
    Вики Кристина Барселона смотреть онлайн
    Cкачать фильм Вики Кристина Барселона бесплатно
    Вики Кристина Барселона скачать торрент в хорошем качестве
    Вики Кристина Барселона смотреть онлайн бесплатно в хорошем качестве


    Вы не можете начинать темы
    Вы не можете отвечать на сообщения
    Вы не можете редактировать свои сообщения
    Вы не можете удалять свои сообщения
    Вы не можете голосовать в опросах
    Вы не можете прикреплять файлы к сообщениям
    Вы можете скачивать файлы