Мега распродажа FORZA HORIZON 4 ULTIMATE+ВСЕ DLC+ОНЛАЙН всего за 499р. 349 руб. (супер цена). Внимание количество ограничено!!!

Лицензия

30

iTunes

мы

iTunes

1

1 сезон

Чернобыль

1 сезон

Ральф против интернета

MVO

Покемон. Детектив Пикачу

8 сезон

Игра престолов

iTunes

1+1

ИГРА 18+

pack

ВАЖНО

!!Акция!!

Alien_RageХит недели

RePack

Resident Evil 21
pack

RePack

Metro:Exodus

!!Акция!!

Alien_Rage

RePack

fifa19

RePack

Assassins Creed: Odyssey

RePack

NEED FOR SPEED™ PAYBACK

3 сезон

9 сезон

Бесстыжие 9 сезон

Все сериалы

все сериалы на PB.wtf

RePack

FAR CRY 5
Ребята, катастрофически не хватает 2730р. для оплаты серверов за МАЙ (всвязи с блокировками трафик упал в 3 раза), 1-2р., выручайте.
  

Голод / Hunger (Стивен Хентджес) [2009 г., ужасы, триллер, BDRip-AVC] MVO pb.wtf

Голод через торрент pb.wtf

Размер: 2.18 GB | Добавлен: 2 года 5 мес. назад | Торрент скачан:95 раз
Скачать  

05-01-2017 08:45 Голод Скачать торрент  

Голод / Hunger
Год выпуска: 2009
Страна: США
Жанр: ужасы, триллер
Продолжительность: 01:36:57
Перевод: Профессиональный (многоголосый) [Лицензия]
Субтитры: Русские

Режиссер: Стивен Хентджес

rating

В ролях: Лори Хёринг, Линден Эшби, Джо Эгендер, Лиа Кол, Джулиан Рохас, Бьорн Джонсон, Бриттен Пэртэйн, Лаура Элбин, Джон Кули, Йен Хоппер

Описание: Голод — это одно из самых страшных чувств человечества. Как далеко можно зайти, чтобы выжить в чрезвычайных обстоятельствах? Пятеро незнакомых друг с другом людей просыпаются в подземной темнице, из которой нет выхода. Вскоре они понимают, что стали жертвами садистского эксперимента по проверке желания человека выжить. Проходит день за днём без надежды на спасение, а вместо этого приходит чувство страшного голода, которое уничтожает всё человеческое в несчастных людях…

Качество: BDRip-AVC
Формат: MKV
Видео кодек: x264
Аудио кодек: AC3
Видео: MPEG-4 AVC, 2318 Кбит/с, 1024x576, 25 кадр/с
Аудио#1: AC3, 6 ch, 448 Кбит/с, 48 kHz | Русский
Аудио#2: AC3, 6 ch, 448 Кбит/с, 48 kHz | Aнглийский
Релиз от: Koenig
Общее
Уникальный идентификатор : 213679920854704763308056525751216971071 (0xA0C1417CB01D28B38877B917A5231D3F)
Полное имя : Hunger.2009.BDRip-AVC.mkv
Формат : Matroska
Версия формата : Version 4 / Version 2
Размер файла : 2,18 Гбайт
Продолжительность : 1 ч. 36 м.
Общий поток : 3216 Кбит/сек
Название фильма : Hunger 2009 by Koenig
Дата кодирования : UTC 2017-01-05 08:12:56
Программа кодирования : mkvmerge v9.2.0 ('Photograph') 32bit
Библиотека кодирования : libebml v1.3.3 + libmatroska v1.4.4
Обложка : Yes
Attachments : cover.jpg

Видео
Идентификатор : 1
Формат : AVC
Формат/Информация : Advanced Video Codec
Профиль формата : High@L4.1
Параметр CABAC формата : Да
Параметр ReFrames формата : 10 кадров
Идентификатор кодека : V_MPEG4/ISO/AVC
Продолжительность : 1 ч. 36 м.
Битрейт : 2318 Кбит/сек
Ширина : 1024 пикселя
Высота : 576 пикселей
Соотношение сторон : 16:9
Режим частоты кадров : Постоянный
Частота кадров : 25,000 кадров/сек
Цветовое пространство : YUV
Субдискретизация насыщенности : 4:2:0
Битовая глубина : 8 бит
Тип развёртки : Прогрессивная
Бит/(Пиксели*Кадры) : 0.157
Размер потока : 1,57 Гбайт (72%)
Заголовок : Hunger 2009
Библиотека кодирования : x264 core 148 r2692 64f4e24
Настройки программы : cabac=1 / ref=10 / deblock=1:-3:-3 / analyse=0x3:0x133 / me=umh / subme=10 / psy=1 / psy_rd=1.00:0.00 / mixed_ref=1 / me_range=32 / chroma_me=1 / trellis=2 / 8x8dct=1 / cqm=0 / deadzone=21,11 / fast_pskip=1 / chroma_qp_offset=-2 / threads=3 / lookahead_threads=1 / sliced_threads=0 / nr=0 / decimate=1 / interlaced=0 / bluray_compat=0 / constrained_intra=0 / bframes=12 / b_pyramid=2 / b_adapt=2 / b_bias=0 / direct=3 / weightb=1 / open_gop=0 / weightp=2 / keyint=250 / keyint_min=25 / scenecut=40 / intra_refresh=0 / rc_lookahead=50 / rc=2pass / mbtree=1 / bitrate=2318 / ratetol=1.0 / qcomp=0.60 / qpmin=0 / qpmax=51 / qpstep=4 / cplxblur=20.0 / qblur=0.5 / vbv_maxrate=50000 / vbv_bufsize=62500 / nal_hrd=none / filler=0 / ip_ratio=1.40 / aq=1:1.00
Default : Да
Forced : Нет

Аудио #1
Идентификатор : 2
Формат : AC-3
Формат/Информация : Audio Coding 3
Расширение режима : CM (complete main)
Параметр Endianness формата : Big
Идентификатор кодека : A_AC3
Продолжительность : 1 ч. 36 м.
Вид битрейта : Постоянный
Битрейт : 448 Кбит/сек
Каналы : 6 каналов
Расположение каналов : Front: L C R, Side: L R, LFE
Частота : 48,0 КГц
Частота кадров : 31,250 кадров/сек (1536 spf)
Битовая глубина : 16 бит
Метод сжатия : С потерями
Размер потока : 311 Мбайт (14%)
Заголовок : MVO - Лицензия
Язык : Russian
Default : Да
Forced : Нет

Аудио #2
Идентификатор : 3
Формат : AC-3
Формат/Информация : Audio Coding 3
Расширение режима : CM (complete main)
Параметр Endianness формата : Big
Идентификатор кодека : A_AC3
Продолжительность : 1 ч. 36 м.
Вид битрейта : Постоянный
Битрейт : 448 Кбит/сек
Каналы : 6 каналов
Расположение каналов : Front: L C R, Side: L R, LFE
Частота : 48,0 КГц
Частота кадров : 31,250 кадров/сек (1536 spf)
Битовая глубина : 16 бит
Метод сжатия : С потерями
Размер потока : 311 Мбайт (14%)
Язык : English
Default : Нет
Forced : Нет

Текст
Идентификатор : 4
Формат : UTF-8
Идентификатор кодека : S_TEXT/UTF8
Идентификатор кодека/Информация : UTF-8 Plain Text
Продолжительность : 1 ч. 33 м.
Битрейт : 46 бит/сек
Count of elements : 755
Размер потока : 31,8 Кбайт (0%)
Заголовок : Full
Язык : Russian
Default : Да
Forced : Нет

Меню
00:00:00.000 : en:
00:06:01.078 : en:
00:14:40.320 : en:
00:25:08.480 : en:
00:32:31.880 : en:
00:41:59.079 : en:
00:50:50.320 : en:
00:58:44.280 : en:
01:07:05.000 : en:
01:16:39.600 : en:
01:28:00.399 : en:
01:34:27.680 : en:

pb.wtf



Скачать Голод через торрент http://pic1.kartinco.top/images/11/mbmon.jpg Скачать фильм Голод через торрент бесплантно в хорошем качестве Описание: Голод — это одно из самых страшных чувств человечества. Как далеко можно зайти, чтобы выжить в чрезвычайных обстоятельствах? ... 10 10 7
Info! Золотая раздача, скачанное не засчитывается.
Торрент: Зарегистрирован [2017-01-05 08:45] · скачан: 95 раз
Статус: √ проверено
Размер: 2.18 GB
Как cкачать? Как скачать Голод через торрент | qTorrent

% Раздел Тема Автор DL S | L
Фильмы [HD 720p, 1080p] (Хороший звук DUB, MVO) [ 7.88 GB ] Голод / The Hunger [1983 BDRip 1080p от еnvy / NNNB] MVO AVO еnvy Скачать
2 | 0
Фильмы [HD 720p, 1080p] (Хороший звук DUB, MVO) [ 7.29 GB ] Голод / The Hunger [1983 BDRip 1080p by msltel] MVO DVO AVO msltel Скачать
1 | 0
Фильмы [HD 720p, 1080p] (Хороший звук DUB, MVO) [ 3.06 GB ] Голод / The Hunger [1983 BDRip 720p by msltel] MVO DVO AVO msltel Скачать
1 | 0
Фильмы до 2000 г. [ 1.78 GB ] Голод / The Hunger [1983 BDRip AVC by msltel] MVO DVO AVO msltel Скачать
1 | 0
Зарубежные сериалы [ 2.11 GB ] Молодые и голодные / Young & Hungr / Сезон: 1 / Серии 1-7 из 10 [2014 WEB-DLRip MVO] [BaibaKo] GEKADOL Скачать
1 | 0


>> Регистрируемся здесь <<






Отзывы и комментарии о схеме читаем и пишем здесь: ---> Отзывы и комментарии о схеме

Новые благодарочки в телеграм довольных пользователей:
скриншот   скриншот   скриншот   скриншот   скриншот

05-01-2017 11:02 Голод Скачать торрент  

интересный фильм, только глупо они не смогли выбраться при тех условиях. это не спойлер, доступ на поверхность и вода была с самого начала фильма.pb.wtf



    Дорогой пользователь! Огромная просьба, поблагодарите релизера, оцените раздачу и оставьте свои комментарий, если Вы скачали Голод через торрент бесплатно! Внесите свою лепту в развитие PiratBit!
    Комментировать посты могут только пользователи прошедшие не сложную регистрацию
    Показать сообщения:    

    Голод через торрент
    Скачать бесплатно Голод
    Голод скачать торрент
    Голод смотреть онлайн
    Cкачать фильм Голод бесплатно
    Голод скачать торрент в хорошем качестве
    Голод смотреть онлайн бесплатно в хорошем качестве


    Вы не можете начинать темы
    Вы не можете отвечать на сообщения
    Вы не можете редактировать свои сообщения
    Вы не можете удалять свои сообщения
    Вы не можете голосовать в опросах
    Вы не можете прикреплять файлы к сообщениям
    Вы можете скачивать файлы