Ссылка на приватное зеркало всего за 1$. Внимание количество ограничено!!!

iTunes

iTunes

iTunes

1

iTunes

iTunes

iTunes

iTunes

iTunes

30
pack

Новость дня

ВАЖНО

!!Акция!!

Alien_RageХит недели

RePack

Resident Evil 21

ИГРА 18+

pack

RePack

jed

!!Акция!!

Alien_Rage

RePack

fifa19

RePack

Assassins Creed: Odyssey

RePack

NEED FOR SPEED™ PAYBACK

4 сезон

9 сезон

Бесстыжие 9 сезон

Все сериалы

все сериалы на PB.wtf

RePack

FAR CRY 5
  

Млечный путь (Анна Матисон) [2015 г., Комедия, HDTVRip] pb.wtf

Млечный путь через торрент pb.wtf

Размер: 1.37 GB | Добавлен: 3 года 4 мес. назад | Торрент скачан:412 раз
Скачать  

05-01-2017 22:49 Млечный путь Скачать торрент  

Млечный путь
Год выпуска: 2015
Страна: Россия
Жанр: Комедия
Продолжительность: 01:31:00
Субтитры: Отсутствуют.

Режиссер: Анна Матисон

Бюджет: $855 727



В ролях: Сергей Безруков, Марина Александрова, Анастасия Безрукова, Пётр Терещенко, Валентин Гафт, Владимир Меньшов, Денис Мацуев, Биликто Дамбаев, Коте Толордава, Сергей Соцердотский

Описание: В браке Андрея и Нади что-то сломалось. Он отправляется жить в Москву, она с детьми остается в Иркутске. В канун Нового Года семья снова собирается вместе, но, похоже, в последний раз. Слово «развод» звучит вполне определенно. 1-го января, казалось бы, всё уже решено, но целая цепочка событий, — смешных, грустных, иногда даже странных и необъяснимых — будто удерживает семью от неправильного шага. Все они потеряются и найдут друг друга в эту волшебную ночь на острове Ольхон и поймут, что прошлые обиды легко забыть, а в жизни есть нечто куда более важное.

Качество: HDTVRip
Формат: AVI
Видео кодек: XviD
Аудио кодек: AC3
Видео: XviD, ~ 1948 Kbps, 720x304,25.000 fps
Аудио: AC3, 2 ch, 192 Kbps,48.0 KHz



General
Complete name : H:\релизы.торрентфайл\Mlechnij.put.2016.HDTVRip.Files-x.avi
Format : AVI
Format/Info : Audio Video Interleave
File size : 1.37 GiB
Duration : 1h 31mn
Overall bit rate : 2 151 Kbps
Writing application : VirtualDubModRus 1.5.10.2 (build 2542/release)
Writing library : VirtualDubMod build 2542/release

Video
ID : 0
Format : MPEG-4 Visual
Format profile : Advanced Simple@L5
Format settings, BVOP : 1
Format settings, QPel : No
Format settings, GMC : No warppoints
Format settings, Matrix : Custom
Codec ID : XVID
Codec ID/Hint : XviD
Duration : 1h 31mn
Bit rate : 1 949 Kbps
Width : 720 pixels
Height : 304 pixels
Display aspect ratio : 2.35:1
Frame rate : 25.000 fps
Color space : YUV
Chroma subsampling : 4:2:0
Bit depth : 8 bits
Scan type : Progressive
Compression mode : Lossy
Bits/(Pixel*Frame) : 0.356
Stream size : 1.24 GiB (91%)
Writing library : XviD 73

Audio
ID : 1
Format : AC-3
Format/Info : Audio Coding 3
Mode extension : CM (complete main)
Format settings, Endianness : Big
Codec ID : 2000
Duration : 1h 31mn
Bit rate mode : Constant
Bit rate : 192 Kbps
Channel(s) : 2 channels
Channel positions : Front: L R
Sampling rate : 48.0 KHz
Bit depth : 16 bits
Compression mode : Lossy
Stream size : 125 MiB (9%)
Alignment : Split accross interleaves
Interleave, duration : 40 ms (1.00 video frame)
Interleave, preload duration : 500 ms

pb.wtf



Скачать Млечный путь через торрент http://pic1.kartinco.top/images/11/cv7x8.jpg Скачать фильм Млечный путь через торрент бесплантно в хорошем качестве Описание: В браке Андрея и Нади что-то сломалось. Он отправляется жить в Москву, она с детьми остается в Иркутске. В канун Нового Года ... 8.7 10 15
Торрент: Зарегистрирован [2017-01-05 22:49] · скачан: 412 раз
Статус: √ проверено
Размер: 1.37 GB
Как cкачать? Как скачать Млечный путь через торрент | qTorrent

% Раздел Тема Автор DL S | L
Кино СССР [ 1.09 GB ] Млечный путь [1959 СССР SATRip-AVC от AVP Studio] AVP Studio Скачать
1 | 0
Кино СССР [ 1.09 GB ] Млечный путь [1959 СССР SATRip от AVP Studio] AVP Studio Скачать
1 | 0
Фильмы 2016 [DVDrip, WEB-DLRip, HDrip] (DUB, MVO) [ 1.37 GB ] По млечному пути / On the Milky Road [2016 экранизация WEB-DLRip ] oleg8 Скачать
2 | 0
Фильмы (WEB-DL 720p, 1080p) [ 4.2 GB ] По млечному пути / On the Milky Road [2016 WEB-DL 1080p] - -Lexx- Скачать
1 | 0
Фильмы 2016 [DVDrip, WEB-DLRip, HDrip] (DUB, MVO) [ 2.18 GB ] По млечному пути / On the Milky Road [2016 WEB-DLRip ""] coc900 Скачать
1 | 0
Наши фильмы (HD, WEB-DL 720p, 1080p) [ 2.71 GB ] Млечный путь [2015 WEB-DL 1080p] [Русский] White Smoke Скачать
1 | 0
Кино СССР [ 744 MB ] Свидание на млечном пути [1985 СССР военный SATRip-AVC от AVP Studio] AVP Studio Скачать
2 | 0

28-11-2019 20:33  

Отключить всю рекламу на сайте

    Дорогой пользователь! Огромная просьба, поблагодарите релизера, оцените раздачу и оставьте свои комментарий, если Вы скачали Млечный путь через торрент бесплатно! Внесите свою лепту в развитие PiratBit!
    Комментировать посты могут только пользователи прошедшие не сложную регистрацию
    Показать сообщения:    

    Млечный путь через торрент
    Скачать бесплатно Млечный путь
    Млечный путь скачать торрент
    Млечный путь смотреть онлайн
    Cкачать фильм Млечный путь бесплатно
    Млечный путь скачать торрент в хорошем качестве
    Млечный путь смотреть онлайн бесплатно в хорошем качестве


    Вы не можете начинать темы
    Вы не можете отвечать на сообщения
    Вы не можете редактировать свои сообщения
    Вы не можете удалять свои сообщения
    Вы не можете голосовать в опросах
    Вы не можете прикреплять файлы к сообщениям
    Вы можете скачивать файлы