Ссылка на приватное зеркало всего за 1$. Внимание количество ограничено!!!

iTunes

iTunes

iTunes

1

iTunes

iTunes

iTunes

iTunes

iTunes

30
pack

$ от Little Big

ВАЖНО

!!Акция!!

Alien_RageХит недели

RePack

Resident Evil 21

ИГРА 18+

pack

RePack

jed

!!Акция!!

Alien_Rage

RePack

fifa19

RePack

Assassins Creed: Odyssey

RePack

NEED FOR SPEED™ PAYBACK

4 сезон

9 сезон

Бесстыжие 9 сезон

Все сериалы

все сериалы на PB.wtf

RePack

FAR CRY 5
  

Новая эра Z / The Girl with All the Gifts (Колм МакКарти / Colm McCarthy) [2016, США, Великобритания, ужасы, триллер, драма, HDTV 1080i] Дубляж - [КиноПремиум HD] pb.wtf

Новая эра Z через торрент pb.wtf

Размер: 4.16 GB | Добавлен: 3 года 6 мес. назад | Торрент скачан:1444 раза
Скачать  

06-01-2017 01:24 Новая эра Z Скачать торрент  

Новая эра Z / The Girl with All the Gifts
«Умные и опасные: спасение или приговор»


  • Год выпуска: 2016
  • Страна: США, Великобритания
  • Жанр: ужасы, триллер, драма
  • Продолжительность: 01:46:09
  • Перевод: Дубляж - [КиноПремиум HD]
  • Режиссер: Колм МакКарти / Colm McCarthy
  • В ролях:

    Джемма Артертон (Helen Justineau), Гленн Клоуз (Dr. Caroline Caldwell), Пэдди Консидайн (Sgt. Eddie Parks), Доминик Типпер (Devani), Анамария Маринка (Dr. Selkirk), Сенниа Нануа (Melanie), Лобна Фьютерс (Hungry), Энтони Уэльс (Dillon), Дэниэл Иган (Soldier), Фисайо Акинаде (Kieran Gallagher), Росс Грин (Hungries), Стэйси Линн Кроу (Hungry)


  • Война миров не закончилась. Планету поразил страшный вирус. На людей стали нападать инфицированные особи, поставив человечество на грань исчезновения. Единственная надежда - второе поколение зараженных, опасных, но обладающих феноменальным, более высоким, чем у людей, интеллектом. Они - ключ к созданию спасительной вакцины. Поэтому их держат в специальном бункере, оберегая от контактов с внешним миром. Но однажды ситуация выходит из-под контроля.
  • Рейтинг:



  • Качество: HDTV 1080i
  • Формат: :MKV
  • Видео кодек: AVC
  • Аудио кодек: AC3
  • Видео: 1920x1080 (16:9), 4844 kbps, 25 fps, 0,093 bpp
  • Аудио №1: русский / 2.0 / 48 kHz / 384 kbps |КиноПремиум HD|
  • Аудио №2: английский / 2.0 / 48 kHz / 384 kbps


  • General
    Unique ID : 224894720186843078099473922470775404426 (0xA93125C8BC7E9DAAB5AB8C3F3510B78A)
    Complete name : H:\NoVa.Era.Z.2O16.D.HDTV.1080i.mkv
    Format : Matroska
    Format version : Version 2
    File size : 4.16 GiB
    Duration : 1 h 46 min
    Overall bit rate mode : Variable
    Overall bit rate : 5 614 kb/s
    Encoded date : UTC 2017-01-05 20:10:21
    Writing application : mkvmerge v8.3.0 ('Over the Horizon') 64bit
    Writing library : libebml v1.3.1 + libmatroska v1.4.2

    Video
    ID : 1
    Format : AVC
    Format/Info : Advanced Video Codec
    Format profile : High@L4
    Format settings, CABAC : No
    Format settings, ReFrames : 4 frames
    Codec ID : V_MPEG4/ISO/AVC
    Duration : 1 h 46 min
    Bit rate mode : Variable
    Bit rate : 4 844 kb/s
    Maximum bit rate : 40.0 Mb/s
    Width : 1 920 pixels
    Height : 1 080 pixels
    Display aspect ratio : 16:9
    Frame rate mode : Constant
    Frame rate : 25.000 FPS
    Color space : YUV
    Chroma subsampling : 4:2:0
    Bit depth : 8 bits
    Scan type : MBAFF
    Scan type, store method : Interleaved fields
    Scan order : Top Field First
    Bits/(Pixel*Frame) : 0.093
    Stream size : 3.59 GiB (86%)
    Default : Yes
    Forced : No

    Audio #1
    ID : 2
    Format : AC-3
    Format/Info : Audio Coding 3
    Mode extension : CM (complete main)
    Format settings, Endianness : Big
    Codec ID : A_AC3
    Duration : 1 h 46 min
    Bit rate mode : Constant
    Bit rate : 384 kb/s
    Channel(s) : 2 channels
    Channel positions : Front: L R
    Sampling rate : 48.0 kHz
    Frame rate : 31.250 FPS (1536 spf)
    Compression mode : Lossy
    Stream size : 292 MiB (7%)
    Language : Russian
    Default : Yes
    Forced : No

    Audio #2
    ID : 3
    Format : AC-3
    Format/Info : Audio Coding 3
    Mode extension : CM (complete main)
    Format settings, Endianness : Big
    Codec ID : A_AC3
    Duration : 1 h 46 min
    Bit rate mode : Constant
    Bit rate : 384 kb/s
    Channel(s) : 2 channels
    Channel positions : Front: L R
    Sampling rate : 48.0 kHz
    Frame rate : 31.250 FPS (1536 spf)
    Compression mode : Lossy
    Stream size : 292 MiB (7%)
    Language : English
    Default : No
    Forced : No



    Скриншоты:



    pb.wtf



  • Скачать Новая эра Z через торрент http://i90.fastpic.ru/big/2017/0106/d7/4e2a95bd95221005ab138027af7308d7.jpg Скачать фильм Новая эра Z через торрент бесплантно в хорошем качестве qw.png Война миров не закончилась. Планету поразил страшный вирус. На людей стали нападать инфицированные особи, поставив человечество на ... 9.6 10 33
    Info! Золотая раздача, скачанное не засчитывается.
    Торрент: Зарегистрирован [2017-01-06 01:24] · скачан: 1 444 раз
    Статус: √ проверено
    Размер: 4.16 GB
    Как cкачать? Как скачать Новая эра Z через торрент | qTorrent

    % Раздел Тема Автор DL S | L
    Фильмы 2016 [DVDrip, WEB-DLRip, HDrip] (DUB, MVO) [ 1.46 GB ] Новая эра Z / The Girl with All the Gifts [2016 BDRip] - [] Twi7ter Скачать
    1 | 0
    R.G. Resident & PiratVoice - Фильмы, Видео [ 2.43 GB ] Новая эра Z / The Girl with All the Gifts [2016 BDRip-AVC] [КиноПремиум HD] R.G.Resident schultz Скачать
    1 | 0
    Фильмы 2016 [DVDrip, WEB-DLRip, HDrip] (DUB, MVO) [ 1.41 GB ] Новая эра Z / The Girl with All the Gifts [2016 BDRip] - [КиноПремиум HD] Twi7ter Скачать
    1 | 0
    Фильмы 2016 [DVDrip, WEB-DLRip, HDrip] (DUB, MVO) [ 2.19 GB ] Новая эра Z / The Girl with All the Gifts [2016 HDRip "BD RUS"] coc900 Скачать
    2 | 0
    Фильмы 2016 [DVDrip, WEB-DLRip, HDrip] (DUB, MVO) [ 2.68 GB ] Новая эра Z / The Girl with All the Gifts [2016 BDRip-AVC] [] AVO от ExKinoRay Enigma2010 Скачать
    1 | 1
    Фильмы [HD 720p, 1080p] (Хороший звук DUB, MVO) [ 7.78 GB ] Новая эра Z / The Girl with All the Gifts [2016 BDRip 720p] DUB [КиноПремиум HD] bober100 Скачать
    1 | 0
    Фильмы [HD 720p, 1080p] (Хороший звук DUB, MVO) [ 8.22 GB ] Новая эра Z / The Girl with All the Gifts [2016 BDRip 1080p / DUB / ] Ворон Скачать
    1 | 0

    28-11-2019 20:33  

    Отключить всю рекламу на сайте

    06-01-2017 08:14 Новая эра Z Скачать торрент  

    Не супер качество :(pb.wtf



    06-01-2017 08:41 Новая эра Z Скачать торрент  

    Присутствует лёгкий рассинхрон. Не критичный, но местами чуть напрягает.pb.wtf



    06-01-2017 12:32 Новая эра Z Скачать торрент  

    Как они все-таки любят эту тему. Я просто поражаюсь. Видимо у людей в жизни вообще неприятностей нет? Они их только по ящику видят наверно. Каюсь, Войну миров Z 2 раза посмотрел. Но там хотя бы Брэд Питт есть. Сюжет - бредятина полная, но смотреть интересно. Первый раз. Второй - не очень, убогость сюжета уже бросается в глаза, как упырь на живого человека. Всех с праздником и побольше хороших фильмов, а то эти мегакрутые поделки уже лично меня достали до печенок.pb.wtf



      Дорогой пользователь! Огромная просьба, поблагодарите релизера, оцените раздачу и оставьте свои комментарий, если Вы скачали Новая эра Z через торрент бесплатно! Внесите свою лепту в развитие PiratBit!
      Комментировать посты могут только пользователи прошедшие не сложную регистрацию
      Показать сообщения:    

      Новая эра Z через торрент
      Скачать бесплатно Новая эра Z
      Новая эра Z скачать торрент
      Новая эра Z смотреть онлайн
      Cкачать фильм Новая эра Z бесплатно
      Новая эра Z скачать торрент в хорошем качестве
      Новая эра Z смотреть онлайн бесплатно в хорошем качестве


      Вы не можете начинать темы
      Вы не можете отвечать на сообщения
      Вы не можете редактировать свои сообщения
      Вы не можете удалять свои сообщения
      Вы не можете голосовать в опросах
      Вы не можете прикреплять файлы к сообщениям
      Вы можете скачивать файлы