Ссылка на приватное зеркало нашего сайта всего за 1$. Внимание количество ограничено!!!

2 сезон

iTunes

1 сезон

1

iTunes

iTunes

iTunes

1 сезон

RePack

30

ИГРА 18+

pack

ВАЖНО

!!Акция!!

Alien_RageХит недели

RePack

MK11
pack

Забери бонус

RePack

jed

!!Акция!!

Alien_Rage

RePack

fifa19

RePack

Assassins Creed: Odyssey

RePack

NEED FOR SPEED™ PAYBACK

4 сезон

9 сезон

Бесстыжие 9 сезон

Все сериалы

все сериалы на PB.wtf

RePack

FAR CRY 5
  

Белые ирландские пьяницы / White Irish Drinkers (Джон Грэй) [2010 г., драма, HDRip] DVO, VO pb.wtf

Белые ирландские пьяницы через торрент pb.wtf

Размер: 2.18 GB | Добавлен: 3 года 9 мес. назад | Торрент скачан:46 раз
Скачать  

06-01-2017 08:03 Белые ирландские пьяницы Скачать торрент  

Белые ирландские пьяницы / White Irish Drinkers
Год выпуска: 2010
Страна: США
Жанр: драма
Продолжительность: 01:49:46
Перевод: Профессиональный двухголосый, любительский одноголосый (Вячеслав Замез)
Субтитры: Русские (Алексей Стуликов), английские

Режиссер: Джон Грэй

rating

В ролях: Ник Тьюрстон, Джеффри Видгор, Карен Аллен, Стивен Лэнг, Питер Ригерт, Лесли Мерфи, Захари Бут, Робби Саблетт, Майкл Дрэйер, Генри Жебровский

Описание: Действие фильма разворачивается в 1975 году в районе Бэй Ридж в Бруклине. Здесь проходит жизнь семей рабочего класса, которые даже не мечтают о том, чтобы покинуть эти места. Братья- подростки Дэнни и Брайан вместе с матерью и отцом-алкоголиком также живут в этой не самой благополучной части города. В отличие от своих сверстников, главные герои картины «Белые ирландские пьяницы» хотят уехать из этих мест. Но если старший Дэнни мечтает покинуть родительский дом, устав от оскорблений и побоев своего вечно пьяного отца, то младший, Брайан, свою мечту хранит в подвале дома, где проводит все свое свободное время за рисованием. Когда мать случайно обнаруживает убежище сына, в ее сердце поселяется искра надежды, что у ее сына может быть лучшее будущее, чем то, которое она может ему предложить.

Качество: HDRip
Формат: AVI
Видео кодек: XviD
Аудио кодек: AC3
Видео: XviD, 1993 Kбит/с, 720x304, 23.976 кадр/с
Аудио#1: AC3, 2 ch, 192 Кбит/с, 48 kHz | Профессиональный двухголосый (НТВ+)
Аудио#2: AC3, 2 ch, 192 Кбит/с, 48 kHz | Любительский одноголосый (Вячеслав Замез, нецензурный)
Аудио#3: AC3, 6 ch, 448 Кбит/с, 48 kHz | Английский
Релиз от: Koenig
Общее
Полное имя : White.Irish.Drinkers.2010.HDRip.avi
Формат : AVI
Формат/Информация : Audio Video Interleave
Профиль формата : OpenDML
Размер файла : 2,18 Гбайт
Продолжительность : 1 ч. 49 м.
Общий поток : 2849 Кбит/сек
Программа кодирования : VirtualDubMod 1.5.10.2 (build 2540/release)
Библиотека кодирования : VirtualDubMod build 2540/release

Видео
Идентификатор : 0
Формат : MPEG-4 Visual
Профиль формата : Advanced Simple@L5
Параметр BVOP формата : 1
Параметр QPel формата : Нет
Параметр GMC формата : Без точки перехода
Параметр матрицы формата : Выборочная
Идентификатор кодека : XVID
Идентификатор кодека/Подсказка : XviD
Продолжительность : 1 ч. 49 м.
Битрейт : 1993 Кбит/сек
Ширина : 720 пикселей
Высота : 304 пикселя
Соотношение сторон : 2,35:1
Частота кадров : 23,976 (24000/1001) кадра/сек
Частота кадров в оригинале : 23,976 (23976/1000) кадра/сек
Цветовое пространство : YUV
Субдискретизация насыщенности : 4:2:0
Битовая глубина : 8 бит
Тип развёртки : Прогрессивная
Метод сжатия : С потерями
Бит/(Пиксели*Кадры) : 0.380
Размер потока : 1,53 Гбайт (70%)
Библиотека кодирования : XviD 73

Аудио #1
Идентификатор : 1
Формат : AC-3
Формат/Информация : Audio Coding 3
Расширение режима : CM (complete main)
Параметр Endianness формата : Big
Идентификатор кодека : 2000
Продолжительность : 1 ч. 49 м.
Вид битрейта : Постоянный
Битрейт : 192 Кбит/сек
Каналы : 2 канала
Расположение каналов : Front: L R
Частота : 48,0 КГц
Частота кадров : 31,250 кадров/сек (1536 spf)
Битовая глубина : 16 бит
Метод сжатия : С потерями
Размер потока : 151 Мбайт (7%)
Выравнивание : Разделение по промежуткам
Продолжительность промежутка : 42 мс. (1,00 видеокадр)
Время предзагрузки промежутка : 500 мс.

Аудио #2
Идентификатор : 2
Формат : AC-3
Формат/Информация : Audio Coding 3
Расширение режима : CM (complete main)
Параметр Endianness формата : Big
Идентификатор кодека : 2000
Продолжительность : 1 ч. 49 м.
Вид битрейта : Постоянный
Битрейт : 192 Кбит/сек
Каналы : 2 канала
Расположение каналов : Front: L R
Частота : 48,0 КГц
Частота кадров : 31,250 кадров/сек (1536 spf)
Битовая глубина : 16 бит
Метод сжатия : С потерями
Размер потока : 151 Мбайт (7%)
Выравнивание : Разделение по промежуткам
Продолжительность промежутка : 42 мс. (1,00 видеокадр)
Время предзагрузки промежутка : 500 мс.

Аудио #3
Идентификатор : 3
Формат : AC-3
Формат/Информация : Audio Coding 3
Расширение режима : CM (complete main)
Параметр Endianness формата : Big
Идентификатор кодека : 2000
Продолжительность : 1 ч. 49 м.
Вид битрейта : Постоянный
Битрейт : 448 Кбит/сек
Каналы : 6 каналов
Расположение каналов : Front: L C R, Side: L R, LFE
Частота : 48,0 КГц
Частота кадров : 31,250 кадров/сек (1536 spf)
Битовая глубина : 16 бит
Метод сжатия : С потерями
Размер потока : 352 Мбайт (16%)
Выравнивание : Разделение по промежуткам
Продолжительность промежутка : 42 мс. (1,00 видеокадр)
Время предзагрузки промежутка : 500 мс.

pb.wtf



Скачать Белые ирландские пьяницы через торрент http://pic1.kartinco.top/images/11/44mra.jpg Скачать фильм Белые ирландские пьяницы через торрент бесплантно в хорошем качестве Описание: Действие фильма разворачивается в 1975 году в районе Бэй Ридж в Бруклине. Здесь проходит жизнь семей рабочего класса, которые ... 4 10 3
Торрент: Зарегистрирован [2017-01-06 08:03] · скачан: 46 раз
Статус: √ проверено
Размер: 2.18 GB
Как cкачать? Как скачать Белые ирландские пьяницы через торрент | qTorrent

% Раздел Тема Автор DL S | L
T Фильмы [HD 720p, 1080p] (Звук Cam, VO, DVO) [ 10.07 GB ] Белые ирландские пьяницы / White Irish Drinkers [2010 BDRip 1080p] DVO VO koenig Скачать
1 | 0

28-11-2019 20:33  

Отключить всю рекламу на сайте

    Дорогой пользователь! Огромная просьба, поблагодарите релизера, оцените раздачу и оставьте свои комментарий, если Вы скачали Белые ирландские пьяницы через торрент бесплатно! Внесите свою лепту в развитие PiratBit!
    Комментировать посты могут только пользователи прошедшие не сложную регистрацию
    Показать сообщения:    

    Белые ирландские пьяницы через торрент
    Скачать бесплатно Белые ирландские пьяницы
    Белые ирландские пьяницы скачать торрент
    Белые ирландские пьяницы смотреть онлайн
    Cкачать фильм Белые ирландские пьяницы бесплатно
    Белые ирландские пьяницы скачать торрент в хорошем качестве
    Белые ирландские пьяницы смотреть онлайн бесплатно в хорошем качестве


    Вы не можете начинать темы
    Вы не можете отвечать на сообщения
    Вы не можете редактировать свои сообщения
    Вы не можете удалять свои сообщения
    Вы не можете голосовать в опросах
    Вы не можете прикреплять файлы к сообщениям
    Вы можете скачивать файлы