новый адрес пиратбит piratbit
Мега распродажа FORZA HORIZON 4 ULTIMATE+ВСЕ DLC+ОНЛАЙН всего за 499р. 349 руб. (супер цена). Внимание количество ограничено!!!

iTunes

1+1

iTunes

мы

iTunes

1

iTunes

Чернобыль

iTunes

Ральф против интернета

Лицензия

ПШазам

Лицензия

Игра престолов

Лицензия

30
pack

ВАЖНО

!!Акция!!

Alien_RageХит недели

RePack

Resident Evil 21

ИГРА 18+

pack

RePack

Metro:Exodus

!!Акция!!

Alien_Rage

RePack

fifa19

RePack

Assassins Creed: Odyssey

RePack

NEED FOR SPEED™ PAYBACK

3 сезон

9 сезон

Бесстыжие 9 сезон

Все сериалы

все сериалы на PB.wtf

RePack

FAR CRY 5
Ребята, катастрофически не хватает 1900р. для оплаты серверов за Октябрь (всвязи с блокировками трафик упал в 3 раза), 1-2р., выручайте.
  

Много шума из ничего (Лев Замковой) [1956, СССР, комедия, DVDRip от AVP Studio] pb.wtf

Много шума из ничего через торрент pb.wtf

Размер: 1.46 GB | Добавлен: 2 года 10 мес. назад | Торрент скачан:7 раз
Скачать  

06-01-2017 10:33 Много шума из ничего Скачать торрент  

Много шума из ничего
Страна: СССР
Производство: МОСНАУЧФИЛЬМ

Жанр: комедия
Год выпуска: 1956
Продолжительность: 01:28:35

Перевод: Не требуется
Cубтитры: нет
Оригинальная аудиодорожка: русский

Режиссер: Лев Замковой

В ролях:
Николай Бубнов, Анатолий Кацинский, Надир Малишевский, Юрий Любимов, Владимир Осенев, Александр Бизюков, Николай Пажитнов, Владимир Покровский, Юлия Борисова, Людмила Целиковская, Елена Измайлова, Анна Данилович, Игорь Липский, Юрий Яковлев, Алексей Емельянов (II), Николай Яновский, Константин Монов, Юрий Лауфер, Вадим Русланов...
Полный список актёров

Описание:
Фильм-спектакль по одноименной комедии Уильяма Шекспира. Постановка Московского академического театра им. Е.Вахтангова, режиссер спектакля И. Рапопорт.
Леонато, наместник солнечной Мессины, что на Сицилии, радушно принимает у себя в доме дона Педро, принца Арагонского, прибывшего в город в сопровождении свиты после победоносного завершения войны. В состав свиты входят и друзья принца, молодые офицеры: флорентиец Клавдио и синьор Бенедикт из Падуи.
Романтичный Клавдио сразу же влюбляется в прекрасную Геро, дочь Леонато, и принц вызывается помочь влюбленному. Ночью, на маскараде, от его имени он открывает девушке чувства Клавдио и сговаривается с ее отцом о свадьбе...

Источник: DVD5 R5
Качество видео: DVDRip
Формат видео: AVI

Видео: 704x528 (4:3), 25 fps, XviD ~ 2158 kbps avg, 0.232 bit/pixel
Аудио: 48 kHz, Dolby Digital AC3 2.0, 192 kbps

Раздача от:
Общее
Полное имя : Mnogo.shuma.iz.nichego.1956.DVDRip_[New-team]_by_AVP_Studio.avi
Формат : AVI
Формат/Информация : Audio Video Interleave
Размер файла : 1,46 Гбайт
Продолжительность : 1 ч. 28 м.
Общий поток : 2360 Кбит/сек
Программа кодирования : VirtualDubMod 1.5.10.3 | www.virtualdub-fr.org || (build 2550/release)
Библиотека кодирования : VirtualDubMod build 2550/release

Видео
Идентификатор : 0
Формат : MPEG-4 Visual
Профиль формата : Advanced Simple@L5
Параметр BVOP формата : 1
Параметр QPel формата : Нет
Параметр GMC формата : Без точки перехода
Параметр матрицы формата : Выборочная
Идентификатор кодека : XVID
Идентификатор кодека/Подсказка : XviD
Продолжительность : 1 ч. 28 м.
Битрейт : 2158 Кбит/сек
Ширина : 704 пикселя
Высота : 528 пикселей
Соотношение сторон : 4:3
Частота кадров : 25,000 кадров/сек
Цветовое пространство : YUV
Субдискретизация насыщенности : 4:2:0
Битовая глубина : 8 бит
Тип развёртки : Прогрессивная
Метод сжатия : С потерями
Бит/(Пиксели*Кадры) : 0.232
Размер потока : 1,34 Гбайт (91%)
Библиотека кодирования : XviD 73

Аудио
Идентификатор : 1
Формат : AC-3
Формат/Информация : Audio Coding 3
Расширение режима : CM (complete main)
Параметр Endianness формата : Big
Идентификатор кодека : 2000
Продолжительность : 1 ч. 28 м.
Вид битрейта : Постоянный
Битрейт : 192 Кбит/сек
Каналы : 2 канала
Расположение каналов : Front: L R
Частота : 48,0 КГц
Частота кадров : 31,250 кадров/сек (1536 spf)
Битовая глубина : 16 бит
Метод сжатия : С потерями
Размер потока : 122 Мбайт (8%)
Выравнивание : Разделение по промежуткам
Продолжительность промежутка : 40 мс. (1,00 видеокадр)
Время предзагрузки промежутка : 500 мс
pb.wtf



Скачать Много шума из ничего через торрент http://s020.radikal.ru/i706/1701/4c/bf6bc8bcbed5.png Скачать фильм Много шума из ничего через торрент бесплантно в хорошем качестве Описание:Фильм-спектакль по одноименной комедии Уильяма Шекспира. Постановка Московского академического театра им. Е.Вахтангова, режиссер ... 5 10 1
Info! Золотая раздача, скачанное не засчитывается.
Торрент: Зарегистрирован [2017-01-06 10:33] · скачан: 7 раз
Статус: √ проверено
Размер: 1.46 GB
Как cкачать? Как скачать Много шума из ничего через торрент | qTorrent

% Раздел Тема Автор DL S | L
Рок, Панк, Альтернатива (mp3) [ 73 MB ] Тараканы! - Много шума из ничего: альбом 2017 / MP3 / 320 kbps / Punk Rock oleg8 Скачать
2 | 0
T Рок, Панк, Альтернатива (mp3) [ 43 MB ] Тараканы - Много шума из ничего 2017 / MP3 / 192 kbps / Punk-Rock bober100 Скачать
2 | 0
Кино СССР [ 1.46 GB ] Много шума из ничего [1956 СССР DVDRip-AVC от AVP Studio] AVP Studio Скачать
1 | 0
Кино СССР [ 745 MB ] Много шума из ничего [1956 СССР DVDRip от AVP Studio] AVP Studio Скачать
1 | 0
Фильмы (Blu-ray, BD-Remux, HDDVD) [ 30.29 GB ] Много шума из ничего / Much Ado About Nothing [2012 BDRemux] MVO() Ворон Скачать
1 | 0
Фильмы 2013 (Звук TS, Cam, VO, DVO) [ 2.18 GB ] Много шума из ничего / Much Ado About Nothing [2012 BDRip-AVCОдноголосый закадровый Д. Есарев KEYS Скачать
1 | 0
Фильмы [HD 720p, 1080p] (Хороший звук DUB, MVO) [ 7.76 GB ] Много шума из ничего / Much Ado About Nothing [2012 BDRip 720p] AVO [Д. Есарев] + Original + Subs Messa-fan Скачать
1 | 0


>> Регистрируемся здесь <<






Отзывы и комментарии о схеме читаем и пишем здесь: ---> Отзывы и комментарии о схеме

Новые благодарочки в телеграм довольных пользователей:
скриншот   скриншот   скриншот   скриншот   скриншот
    Дорогой пользователь! Огромная просьба, поблагодарите релизера, оцените раздачу и оставьте свои комментарий, если Вы скачали Много шума из ничего через торрент бесплатно! Внесите свою лепту в развитие PiratBit!
    Комментировать посты могут только пользователи прошедшие не сложную регистрацию
    Показать сообщения:    

    Много шума из ничего через торрент
    Скачать бесплатно Много шума из ничего
    Много шума из ничего скачать торрент
    Много шума из ничего смотреть онлайн
    Cкачать фильм Много шума из ничего бесплатно
    Много шума из ничего скачать торрент в хорошем качестве
    Много шума из ничего смотреть онлайн бесплатно в хорошем качестве


    Вы не можете начинать темы
    Вы не можете отвечать на сообщения
    Вы не можете редактировать свои сообщения
    Вы не можете удалять свои сообщения
    Вы не можете голосовать в опросах
    Вы не можете прикреплять файлы к сообщениям
    Вы можете скачивать файлы