Ссылка на приватное зеркало нашего сайта всего за 1$. Внимание количество ограничено!!!

2 сезон

iTunes

1 сезон

1

2 сезон

2 сезон

iTunes

1 сезон

RePack

30

Ultimate

ВАЖНО

ИГРА 18+

pack

RePack

MK11
pack

Забери бонус

RePack

jed

!!Акция!!

Alien_Rage

RePack

fifa19

RePack

Assassins Creed: Odyssey

RePack

NEED FOR SPEED™ PAYBACK

4 сезон

9 сезон

Бесстыжие 9 сезон

Все сериалы

все сериалы на PB.wtf

RePack

FAR CRY 5
  

На виду / На чистую воду / In Plain Sight / Сезон 1 / 1-3 серии из 3 (John Strickland) [2016, криминальная драма, HDTVRip-AVC] [Sub] (Rus) pb.wtf

На виду через торрент pb.wtf

Размер: 1.37 GB | Добавлен: 3 года 10 мес. назад | Торрент скачан:32 раза
Скачать  

06-01-2017 10:35 На виду Скачать торрент  

На виду / На чистую воду / In Plain Sight
Год выпуска: 2016
Страна: Великобритания
Жанр: криминальная драма
Продолжительность: 00:45:00
Перевод: Русские субтитры (Vela, yurabukin)
Оригинальная аудиодорожка: английский

Режиссёр: John Strickland

В ролях:
Дуглас Хеншэлл (Douglas Henshall) в роли Уильяма Манси
Мартин Компстон (Martin Compston) в роли Питера Мануэля
Джоан Томпсон (Joanne Thomson) в роли Айрис Лярд

Описание: Сюжет этого трёхсерийного мини-сериала основан на реальных событиях, имевших место в 50-х годах прошлого века. Действие вертится вокруг противостояния детектива полиции Уильяма Манси (в исполнении Дугласа Хеншэлла) и маньяка Питера Мануэля (в исполнении Мартина Компстона).



Качество: HDTVRip- AVC
Формат: MP4
Видео: AVC, 896*504, 25.000 fps, ~1350 Kbps, 0,100 bit/pixel
Аудио: AAC, 96 Kbps, 48.0 KHz, 2 channels
General
Complete name : In Plane Sight\In Plain Sight E01.mp4
Format : MPEG-4
Format profile : Base Media
Codec ID : isom (isom/iso2/avc1/mp41)
File size : 453 MiB
Duration : 43 min 32 s
Overall bit rate : 1 455 kb/s
Collection : In Plain Sight
Season : 1
Part : 1
Track name : In Plain Sight - Episode 1
Performer : ITV
ContentType : TV Show
Description : Premiere. Crime drama. A man recently released from a nine-year prison term, is determined to make Detective William Muncie, the man responsible for his incarceration, pay the pric
Tagged date : UTC 2016-12-07 23:49:25
Writing application : Lavf57.25.100
Cover : Yes
Lyrics : Premiere. Crime drama. A man recently released from a nine-year prison term, is determined to make Detective William Muncie, the man responsible for his incarceration, pay the pric
Comment : Premiere. Crime drama. A man recently released from a nine-year prison term, is determined to make Detective William Muncie, the man responsible for his incarceration, pay the pric
TVNetworkName : ITV
Part_ID : Episode 1
LongDescription : Premiere. Crime drama. A man recently released from a nine-year prison term, is determined to make Detective William Muncie, the man responsible for his incarceration, pay the pric
Video
ID : 1
Format : AVC
Format/Info : Advanced Video Codec
Format profile : High@L3.1
Format settings, CABAC : Yes
Format settings, ReFrames : 6 frames
Codec ID : avc1
Codec ID/Info : Advanced Video Coding
Duration : 43 min 32 s
Bit rate : 1 353 kb/s
Nominal bit rate : 1 704 kb/s
Width : 896 pixels
Height : 504 pixels
Display aspect ratio : 16:9
Frame rate mode : Constant
Frame rate : 25.000 FPS
Color space : YUV
Chroma subsampling : 4:2:0
Bit depth : 8 bits
Scan type : Progressive
Bits/(Pixel*Frame) : 0.120
Stream size : 421 MiB (93%)
Writing library : x264 core 138
Encoding settings : cabac=1 / ref=6 / deblock=1:-1:-1 / analyse=0x3:0x113 / me=umh / subme=8 / psy=1 / psy_rd=0.60:1.00 / mixed_ref=1 / me_range=16 / chroma_me=1 / trellis=2 / 8x8dct=1 / cqm=0 / deadzone=21,11 / fast_pskip=1 / chroma_qp_offset=-4 / threads=8 / lookahead_threads=1 / sliced_threads=0 / nr=0 / decimate=1 / interlaced=0 / bluray_compat=0 / constrained_intra=0 / bframes=3 / b_pyramid=0 / b_adapt=2 / b_bias=0 / direct=3 / weightb=1 / open_gop=0 / weightp=2 / keyint=150 / keyint_min=15 / scenecut=0 / intra_refresh=0 / rc_lookahead=60 / rc=cbr / mbtree=1 / bitrate=1704 / ratetol=1.0 / qcomp=0.60 / qpmin=0 / qpmax=69 / qpstep=4 / vbv_maxrate=1704 / vbv_bufsize=1278 / nal_hrd=none / filler=0 / ip_ratio=1.40 / aq=1:1.40
Audio
ID : 2
Format : AAC
Format/Info : Advanced Audio Codec
Format profile : LC
Codec ID : 40
Duration : 43 min 32 s
Bit rate mode : Constant
Bit rate : 96.0 kb/s
Channel(s) : 2 channels
Channel positions : Front: L R
Sampling rate : 48.0 kHz
Frame rate : 46.875 FPS (1024 spf)
Compression mode : Lossy
Stream size : 29.9 MiB (7%)
Default : Yes
Alternate group : 1
pb.wtf



Скачать На виду через торрент http://i90.fastpic.ru/big/2017/0105/96/3325a521d63fcf90297851939728aa96.jpg Скачать фильм На виду через торрент бесплантно в хорошем качестве Описание: Сюжет этого трёхсерийного мини-сериала основан на реальных событиях, имевших место в 50-х годах прошлого века. Действие вертится ... 7 10 3
Торрент: Зарегистрирован [2017-01-06 10:35] · скачан: 32 раз
Статус: √ проверено
Размер: 1.37 GB
Как cкачать? Как скачать На виду через торрент | qTorrent

28-11-2019 20:33  

Отключить всю рекламу на сайте

    Дорогой пользователь! Огромная просьба, поблагодарите релизера, оцените раздачу и оставьте свои комментарий, если Вы скачали На виду через торрент бесплатно! Внесите свою лепту в развитие PiratBit!
    Комментировать посты могут только пользователи прошедшие не сложную регистрацию
    Показать сообщения:    

    На виду через торрент
    Скачать бесплатно На виду
    На виду скачать торрент
    На виду смотреть онлайн
    Cкачать фильм На виду бесплатно
    На виду скачать торрент в хорошем качестве
    На виду смотреть онлайн бесплатно в хорошем качестве


    Вы не можете начинать темы
    Вы не можете отвечать на сообщения
    Вы не можете редактировать свои сообщения
    Вы не можете удалять свои сообщения
    Вы не можете голосовать в опросах
    Вы не можете прикреплять файлы к сообщениям
    Вы можете скачивать файлы