Death Stranding+DLC+АВТОАКТИВАЦИЯ

iTunes

iTunes

iTunes

1

iTunes

iTunes

iTunes

iTunes

iTunes

30
pack

$ от Little Big

ВАЖНО

!!Акция!!

Alien_RageХит недели

RePack

Resident Evil 21

ИГРА 18+

pack

RePack

jed

!!Акция!!

Alien_Rage

RePack

fifa19

RePack

Assassins Creed: Odyssey

RePack

NEED FOR SPEED™ PAYBACK

4 сезон

9 сезон

Бесстыжие 9 сезон

Все сериалы

все сериалы на PB.wtf

RePack

FAR CRY 5
  

Божественные тайны сестричек Я-Я / Divine Secrets of the Ya-Ya Sisterhood (Кэлли Кхури) [2002 г., драма, WEB-DL 1080p] 2xMVO pb.wtf

Божественные тайны сестричек Я-Я через торрент pb.wtf

Размер: 4.54 GB | Добавлен: 3 года 6 мес. назад | Торрент скачан:20 раз
Скачать  

06-01-2017 18:45 Божественные тайны сестричек Я-Я Скачать торрент  

Божественные тайны сестричек Я-Я / Divine Secrets of the Ya-Ya Sisterhood
Год выпуска: 2002
Страна: США
Жанр: драма
Продолжительность: 01:56:32
Перевод: Профессиональный (многоголосый)
Субтитры: Английские

Режиссер: Кэлли Кхури

rating

В ролях: Сандра Баллок, Эллен Бёрстин, Фионнула Флэнаган, Джеймс Гарнер, Черри Джонс, Эшли Джадд, Ширли Найт, Энгус Макфадьен, Мэгги Смит, Жаклин МакКензи, Кэти Селверстоун, Кирстен Уоррен, Дэвид Ли Смит, Джина МакКи, Мэттью Сеттл, Дэвид Раш, Лесли Силва, Рон Дортч, Фредерик Колер, Эллисон Бертолино

Описание: Фильм основан на одноименном романе Ребекки Уэллс 1996 года и повествует о женской дружбе и взаимоотношениях матери с дочерью, показанных глазами дочери — драматурга, чье невротическое поведение берет начало в детстве.

Качество: WEB-DL 1080p
Формат: MKV
Видео кодек: x264
Аудио кодек: AC3
Видео: MPEG-4 AVC, 4557 Кбит/с, 1916x804, 23.976 кадр/с
Аудио#1: AC3, 6 ch, 448 Кбит/с, 48 kHz | Профессиональный многоголосый
Аудио#2: AC3, 2 ch, 192 Кбит/с, 48 kHz | Профессиональный многоголосый (ТК "Россия")
Аудио#3: AC3, 6 ch, 384 Кбит/с, 48 kHz | Английский
Релиз от: Koenig
Общее
Уникальный идентификатор : 208995512142701062195163366595161729591 (0x9D3B124E561932B69507D7AA79B3AA37)
Полное имя : Divine.Secrets.of.the.Ya-Ya.Sisterhood.2002.WEB-DL.1080p.mkv
Формат : Matroska
Версия формата : Version 4 / Version 2
Размер файла : 4,54 Гбайт
Продолжительность : 1 ч. 56 м.
Общий поток : 5572 Кбит/сек
Название фильма : Divine Secrets of the Ya-Ya Sisterhood
Дата кодирования : UTC 2017-01-06 16:23:11
Программа кодирования : mkvmerge v9.2.0 ('Photograph') 32bit
Библиотека кодирования : libebml v1.3.3 + libmatroska v1.4.4
Обложка : Yes
Attachments : cover.jpg

Видео
Идентификатор : 1
Формат : AVC
Формат/Информация : Advanced Video Codec
Профиль формата : High@L4
Параметр CABAC формата : Да
Параметр ReFrames формата : 5 кадров
Идентификатор кодека : V_MPEG4/ISO/AVC
Продолжительность : 1 ч. 56 м.
Битрейт : 4557 Кбит/сек
Ширина : 1916 пикселей
Высота : 804 пикселя
Соотношение сторон : 2,40:1
Режим частоты кадров : Постоянный
Частота кадров : 23,976 (23976/1000) кадра/сек
Цветовое пространство : YUV
Субдискретизация насыщенности : 4:2:0
Битовая глубина : 8 бит
Тип развёртки : Прогрессивная
Бит/(Пиксели*Кадры) : 0.123
Размер потока : 3,71 Гбайт (82%)
Заголовок : Divine Secrets of the Ya-Ya Sisterhood
Язык : English
Default : Да
Forced : Нет
Цветовой диапазон : Limited
Основные цвета : BT.709
Характеристики трансфера : BT.709
Коэффициенты матрицы : BT.709

Аудио #1
Идентификатор : 2
Формат : AC-3
Формат/Информация : Audio Coding 3
Расширение режима : CM (complete main)
Параметр Endianness формата : Big
Идентификатор кодека : A_AC3
Продолжительность : 1 ч. 54 м.
Вид битрейта : Постоянный
Битрейт : 448 Кбит/сек
Каналы : 6 каналов
Расположение каналов : Front: L C R, Side: L R, LFE
Частота : 48,0 КГц
Частота кадров : 31,250 кадров/сек (1536 spf)
Битовая глубина : 16 бит
Метод сжатия : С потерями
Размер потока : 366 Мбайт (8%)
Заголовок : MVO
Язык : Russian
Default : Да
Forced : Нет

Аудио #2
Идентификатор : 3
Формат : AC-3
Формат/Информация : Audio Coding 3
Расширение режима : CM (complete main)
Параметр Endianness формата : Big
Идентификатор кодека : A_AC3
Продолжительность : 1 ч. 56 м.
Вид битрейта : Постоянный
Битрейт : 192 Кбит/сек
Каналы : 2 канала
Расположение каналов : Front: L R
Частота : 48,0 КГц
Частота кадров : 31,250 кадров/сек (1536 spf)
Битовая глубина : 16 бит
Метод сжатия : С потерями
Размер потока : 160 Мбайт (3%)
Заголовок : MVO - ТК "Россия"
Язык : Russian
Default : Нет
Forced : Нет

Аудио #3
Идентификатор : 4
Формат : AC-3
Формат/Информация : Audio Coding 3
Расширение режима : CM (complete main)
Параметр Endianness формата : Big
Идентификатор кодека : A_AC3
Продолжительность : 1 ч. 56 м.
Вид битрейта : Постоянный
Битрейт : 384 Кбит/сек
Каналы : 6 каналов
Расположение каналов : Front: L C R, Side: L R, LFE
Частота : 48,0 КГц
Частота кадров : 31,250 кадров/сек (1536 spf)
Битовая глубина : 16 бит
Метод сжатия : С потерями
Размер потока : 320 Мбайт (7%)
Язык : English
Default : Нет
Forced : Нет

Текст
Идентификатор : 5
Формат : UTF-8
Идентификатор кодека : S_TEXT/UTF8
Идентификатор кодека/Информация : UTF-8 Plain Text
Продолжительность : 1 ч. 50 м.
Битрейт : 83 бит/сек
Count of elements : 1941
Размер потока : 67,7 Кбайт (0%)
Язык : English
Default : Да
Forced : Нет

Меню
00:00:00.000 : en:Ya-Ya Priestesses
00:04:08.748 : en:The Interview
00:06:45.905 : en:Cutting Sidda out
00:11:57.925 : en:Will or Pill?
00:17:03.939 : en:Her Ticket out
00:19:40.512 : en:Show'em How It's Done
00:23:00.921 : en:Princesses in Atlanta
00:29:14.461 : en:Wartime Promises
00:33:07.151 : en:Joyride
00:35:53.067 : en:The Ring
00:40:47.027 : en:Birthday Thing. Ow!
00:45:08.914 : en:Exit Jack
00:49:43.355 : en:Enter Shep
00:52:30.355 : en:Ruination by Phone
00:55:55.518 : en:Teensy / Vivi Standoff
00:59:02.205 : en:Better off Alone
01:01:58.214 : en:Hailing Mary
01:04:32.869 : en:Paved With Humility
01:09:20.072 : en:Sidda's Fears
01:12:29.094 : en:Absolution
01:15:53.090 : en:Away From Home
01:19:36.313 : en:Coin Toss
01:22:43.208 : en:Breaking Point
01:28:14.372 : en:Sure As Hell Gone
01:32:05.561 : en:Sunflower Saint
01:34:46.389 : en:Angels Aloft
01:41:01.430 : en:Answer to Her Prayer
01:46:40.143 : en:Initiation
01:50:34.210 : en:End Credits

pb.wtf



Скачать Божественные тайны сестричек Я-Я через торрент http://pic1.kartinco.top/images/11/u86cc.jpg Скачать фильм Божественные тайны сестричек Я-Я через торрент бесплантно в хорошем качестве Описание: Фильм основан на одноименном романе Ребекки Уэллс 1996 года и повествует о женской дружбе и взаимоотношениях матери с дочерью, ... 4 10 3
Торрент: Зарегистрирован [2017-01-06 18:45] · скачан: 20 раз
Статус: √ проверено
Размер: 4.54 GB
Как cкачать? Как скачать Божественные тайны сестричек Я-Я через торрент | qTorrent

% Раздел Тема Автор DL S | L
Фильмы 2001-2005 [ 2.18 GB ] Божественные тайны сестричек Я-Я / Divine Secrets of the Ya-Ya Sisterhood [2002 WEB-DLRip] 2xMVO koenig Скачать
1 | 0

28-11-2019 20:33  

Отключить всю рекламу на сайте

    Дорогой пользователь! Огромная просьба, поблагодарите релизера, оцените раздачу и оставьте свои комментарий, если Вы скачали Божественные тайны сестричек Я-Я через торрент бесплатно! Внесите свою лепту в развитие PiratBit!
    Комментировать посты могут только пользователи прошедшие не сложную регистрацию
    Показать сообщения:    

    Божественные тайны сестричек Я-Я через торрент
    Скачать бесплатно Божественные тайны сестричек Я-Я
    Божественные тайны сестричек Я-Я скачать торрент
    Божественные тайны сестричек Я-Я смотреть онлайн
    Cкачать фильм Божественные тайны сестричек Я-Я бесплатно
    Божественные тайны сестричек Я-Я скачать торрент в хорошем качестве
    Божественные тайны сестричек Я-Я смотреть онлайн бесплатно в хорошем качестве


    Вы не можете начинать темы
    Вы не можете отвечать на сообщения
    Вы не можете редактировать свои сообщения
    Вы не можете удалять свои сообщения
    Вы не можете голосовать в опросах
    Вы не можете прикреплять файлы к сообщениям
    Вы можете скачивать файлы