Ссылка на приватное зеркало всего за 1$. Внимание количество ограничено!!!

iTunes

iTunes

iTunes

1

iTunes

iTunes

iTunes

iTunes

iTunes

30
pack

Новость дня

ВАЖНО

!!Акция!!

Alien_RageХит недели

RePack

Resident Evil 21

ИГРА 18+

pack

RePack

jed

!!Акция!!

Alien_Rage

RePack

fifa19

RePack

Assassins Creed: Odyssey

RePack

NEED FOR SPEED™ PAYBACK

4 сезон

9 сезон

Бесстыжие 9 сезон

Все сериалы

все сериалы на PB.wtf

RePack

FAR CRY 5
  

Чудо в Крыму (Виталий Павлов) [2015, Россия, Мелодрама, HDTVRip] pb.wtf

Чудо в Крыму через торрент pb.wtf

Размер: 1.36 GB | Добавлен: 3 года 4 мес. назад | Торрент скачан:176 раз
Скачать  

07-01-2017 01:21 Чудо в Крыму Скачать торрент  

Чудо в Крыму


  • Год выпуска: 2015
  • Страна: Россия
  • Жанр: Мелодрама
  • Продолжительность: 01:28:52
  • Перевод: Не требуется [Русский]
  • Режиссер: Виталий Павлов
  • В ролях:

    Михаил Пореченков, Ирина Гринёва, Михаил Дитковский


  • Несостоявшийся провинциальный актер Дима работает в Симферополе личным водителем директора агентства недвижимости, а для души каждый год выступает в роли Деда Мороза. В канун Нового года он знакомится с женщиной своих грез — известной актрисой из Москвы Марией Устиновой. После нескольких совместно пережитых приключений столичная штучка проникается симпатией к доброму и отзывчивому шоферу. Каждому известно, что в таких романистических историях важен первый шаг. Тем более, если он сделан в новогоднюю ночь…
  • Рейтинг:



  • Качество: HDTVRip
  • Формат: :AVI
  • Видео кодек: XviD
  • Аудио кодек: AC3
  • Видео: 720x400 (16:9), 1996 kbps, 25 fps, 0,277 bpp
  • Аудио: 2.0 / 48 kHz / 192 kbps

    General
    Complete name : H:\Chudo.v.Krymu.HDTVRip.avi
    Format : AVI
    Format/Info : Audio Video Interleave
    File size : 1.36 GiB
    Duration : 1 h 28 min
    Overall bit rate : 2 199 kb/s
    Writing application : VirtualDubMod 1.5.10.2 (build 2540/release)
    Writing library : VirtualDubMod build 2540/release

    Video
    ID : 0
    Format : MPEG-4 Visual
    Format profile : Advanced Simple@L5
    Format settings, BVOP : 2
    Format settings, QPel : No
    Format settings, GMC : No warppoints
    Format settings, Matrix : Default (MPEG)
    Codec ID : XVID
    Codec ID/Hint : XviD
    Duration : 1 h 28 min
    Bit rate : 1 997 kb/s
    Width : 720 pixels
    Height : 400 pixels
    Display aspect ratio : 16:9
    Frame rate : 25.000 FPS
    Color space : YUV
    Chroma subsampling : 4:2:0
    Bit depth : 8 bits
    Scan type : Progressive
    Compression mode : Lossy
    Bits/(Pixel*Frame) : 0.277
    Stream size : 1.24 GiB (91%)
    Writing library : XviD 1.2.1 (UTC 2008-12-04)

    Audio
    ID : 1
    Format : AC-3
    Format/Info : Audio Coding 3
    Mode extension : CM (complete main)
    Format settings, Endianness : Big
    Codec ID : 2000
    Duration : 1 h 28 min
    Bit rate mode : Constant
    Bit rate : 192 kb/s
    Channel(s) : 2 channels
    Channel positions : Front: L R
    Sampling rate : 48.0 kHz
    Frame rate : 31.250 FPS (1536 spf)
    Compression mode : Lossy
    Stream size : 122 MiB (9%)
    Alignment : Split accross interleaves
    Interleave, duration : 40 ms (1.00 video frame)
    Interleave, preload duration : 500 ms

    Скриншоты:



    pb.wtf



  • Скачать Чудо в Крыму через торрент http://i91.fastpic.ru/big/2017/0107/ff/0a3213ff05b7e9fa5c821c137ebb1cff.jpg Скачать фильм Чудо в Крыму через торрент бесплантно в хорошем качестве qw.png Несостоявшийся провинциальный актер Дима работает в Симферополе личным водителем директора агентства недвижимости, а для души ... 6.9 10 11
    Торрент: Зарегистрирован [2017-01-07 01:21] · скачан: 176 раз
    Статус: √ проверено
    Размер: 1.36 GB
    Как cкачать? Как скачать Чудо в Крыму через торрент | qTorrent

    % Раздел Тема Автор DL S | L
    Наши фильмы (HD, WEB-DL 720p, 1080p) [ 5.16 GB ] Чудо в Крыму [2015 Россия Мело HDTV 1080i] GEKADOL Скачать
    1 | 0


    Последний раз редактировалось: GEKADOL (2017-01-07 01:39), всего редактировалось 1 раз

    28-11-2019 20:33  

    Отключить всю рекламу на сайте

    07-01-2017 01:26 Чудо в Крыму Скачать торрент  

    Не туда разместил pb.wtf



    08-01-2017 18:14 Чудо в Крыму Скачать торрент  

    Фу _ МЛЯpb.wtf



      Дорогой пользователь! Огромная просьба, поблагодарите релизера, оцените раздачу и оставьте свои комментарий, если Вы скачали Чудо в Крыму через торрент бесплатно! Внесите свою лепту в развитие PiratBit!
      Комментировать посты могут только пользователи прошедшие не сложную регистрацию
      Показать сообщения:    

      Чудо в Крыму через торрент
      Скачать бесплатно Чудо в Крыму
      Чудо в Крыму скачать торрент
      Чудо в Крыму смотреть онлайн
      Cкачать фильм Чудо в Крыму бесплатно
      Чудо в Крыму скачать торрент в хорошем качестве
      Чудо в Крыму смотреть онлайн бесплатно в хорошем качестве


      Вы не можете начинать темы
      Вы не можете отвечать на сообщения
      Вы не можете редактировать свои сообщения
      Вы не можете удалять свои сообщения
      Вы не можете голосовать в опросах
      Вы не можете прикреплять файлы к сообщениям
      Вы можете скачивать файлы