2 сезон

iTunes

1 сезон

1

iTunes

iTunes

iTunes

1 сезон

RePack

30

ИГРА 18+

pack

ВАЖНО

!!Акция!!

Alien_RageХит недели

RePack

MK11
pack

Забери бонус

RePack

jed

!!Акция!!

Alien_Rage

RePack

fifa19

RePack

Assassins Creed: Odyssey

RePack

NEED FOR SPEED™ PAYBACK

4 сезон

9 сезон

Бесстыжие 9 сезон

Все сериалы

все сериалы на PB.wtf

RePack

FAR CRY 5
  

Высокие каблуки / Tacones lejanos (Педро Альмодовар) [1991, драма, мелодрама, комедия, BDRip 720p by msltel] MVO, VO pb.wtf

Высокие каблуки через торрент pb.wtf

Размер: 5.87 GB | Добавлен: 3 года 9 мес. назад | Торрент скачан:37 раз
Скачать  

07-01-2017 08:07 Высокие каблуки Скачать торрент  

Название: Высокие каблуки
Оригинальное название: Tacones lejanos
Год выпуска: 1991
Страна: Испания, Франция
Жанр: драма, мелодрама, комедия
Продолжительность: 01:53:28
Перевод: профессиональный многоголосый, любительский одноголосый

Режиссёр: Педро Альмодовар

В ролях: Виктория Абриль, Мариса Паредес, Мигель Бозе, Анна Лисаран, Майрата О’Висиедо, Кристина Маркос, Феодор Аткин, Педро Диас дель Корраль, Бибиана Фернандес, Начо Мартинес

Описание: Мать и дочь оказываются замешанными в таинственном убийстве. Его расследование проливает свет на их запутанные отношения как между собой, так и с окружающими людьми...



Качество: BDRip 720p
Формат: MKV
Видео: MPEG-4 AVC, 6575 Kбит/с, 1280x690, 24 кадра/с
Аудио 1: русский, AC3, 192 kbps, 2 ch, 48 kHz [профессиональный многоголосый, СОЮЗ Видео]
Аудио 2: русский, AC3, 192 kbps, 2 ch, 48 kHz [любительский одноголосый (с VHS)]
Аудио 3: испанский, AC3, 448 kbps, 2 ch, 48 kHz [оригинал]
Субтитры 1: русские
Субтитры 2: английские
Имеются неименованные главы/чаптеры.
Общее
Уникальный идентификатор : 170569736976071384760651736461503111502 (0x80528951D3FB8ADDB2193670DAF0214E)
Полное имя : D:\Video\Высокие каблуки.1991.BDRip.720p by msltel.mkv
Формат : Matroska
Версия формата : Version 4 / Version 2
Размер файла : 5,87 Гбайт
Продолжительность : 1 ч. 53 м.
Общий поток : 7410 Кбит/сек
Название фильма : Rip by msltel
Дата кодирования : UTC 2017-01-07 03:08:06
Программа кодирования : mkvmerge v8.2.0 ('World of Adventure') 64bit
Библиотека кодирования : libebml v1.3.1 + libmatroska v1.4.2

Видео
Идентификатор : 1
Формат : AVC
Формат/Информация : Advanced Video Codec
Профиль формата : High@L4.1
Параметр CABAC формата : Да
Параметр ReFrames формата : 9 кадров
Идентификатор кодека : V_MPEG4/ISO/AVC
Продолжительность : 1 ч. 53 м.
Битрейт : 6575 Кбит/сек
Ширина : 1280 пикселей
Высота : 690 пикселей
Соотношение сторон : 1,85:1
Режим частоты кадров : Постоянный
Частота кадров : 24,000 кадра/сек
Цветовое пространство : YUV
Субдискретизация насыщенности : 4:2:0
Битовая глубина : 8 бит
Тип развёртки : Прогрессивная
Бит/(Пиксели*Кадры) : 0.310
Размер потока : 5,21 Гбайт (89%)
Библиотека кодирования : x264 core 146 r2538 121396c
Настройки программы : cabac=1 / ref=9 / deblock=1:-3:-3 / analyse=0x3:0x113 / me=umh / subme=10 / psy=1 / psy_rd=1.00:0.15 / mixed_ref=1 / me_range=32 / chroma_me=1 / trellis=2 / 8x8dct=1 / cqm=0 / deadzone=21,11 / fast_pskip=0 / chroma_qp_offset=-3 / threads=6 / lookahead_threads=1 / sliced_threads=0 / nr=0 / decimate=1 / interlaced=0 / bluray_compat=0 / constrained_intra=0 / bframes=12 / b_pyramid=2 / b_adapt=2 / b_bias=0 / direct=1 / weightb=0 / open_gop=0 / weightp=2 / keyint=230 / keyint_min=23 / scenecut=40 / intra_refresh=0 / rc_lookahead=40 / rc=crf / mbtree=0 / crf=20.5 / qcomp=0.60 / qpmin=0 / qpmax=69 / qpstep=4 / vbv_maxrate=50000 / vbv_bufsize=62500 / crf_max=0.0 / nal_hrd=none / filler=0 / ip_ratio=1.40 / pb_ratio=1.30 / aq=1:1.00
Язык : Spanish
Default : Да
Forced : Нет

Аудио #1
Идентификатор : 2
Формат : AC-3
Формат/Информация : Audio Coding 3
Расширение режима : CM (complete main)
Параметр Endianness формата : Big
Идентификатор кодека : A_AC3
Продолжительность : 1 ч. 53 м.
Вид битрейта : Постоянный
Битрейт : 192 Кбит/сек
Каналы : 2 канала
Расположение каналов : Front: L R
Частота : 48,0 КГц
Частота кадров : 31,250 кадров/сек (1536 spf)
Метод сжатия : С потерями
Размер потока : 156 Мбайт (3%)
Заголовок : MVO (СОЮЗ Видео)
Язык : Russian
Default : Да
Forced : Нет

Аудио #2
Идентификатор : 3
Формат : AC-3
Формат/Информация : Audio Coding 3
Расширение режима : CM (complete main)
Параметр Endianness формата : Big
Идентификатор кодека : A_AC3
Продолжительность : 1 ч. 53 м.
Вид битрейта : Постоянный
Битрейт : 192 Кбит/сек
Каналы : 2 канала
Расположение каналов : Front: L R
Частота : 48,0 КГц
Частота кадров : 31,250 кадров/сек (1536 spf)
Метод сжатия : С потерями
Размер потока : 156 Мбайт (3%)
Заголовок : любительский одноголосый (с VHS)
Язык : Russian
Default : Нет
Forced : Нет

Аудио #3
Идентификатор : 4
Формат : AC-3
Формат/Информация : Audio Coding 3
Расширение режима : CM (complete main)
Параметр Endianness формата : Big
Идентификатор кодека : A_AC3
Продолжительность : 1 ч. 53 м.
Вид битрейта : Постоянный
Битрейт : 448 Кбит/сек
Каналы : 2 канала
Расположение каналов : Front: L R
Частота : 48,0 КГц
Частота кадров : 31,250 кадров/сек (1536 spf)
Метод сжатия : С потерями
Размер потока : 364 Мбайт (6%)
Заголовок : original
Язык : Spanish
Default : Нет
Forced : Нет

Текст #1
Идентификатор : 5
Формат : UTF-8
Идентификатор кодека : S_TEXT/UTF8
Идентификатор кодека/Информация : UTF-8 Plain Text
Продолжительность : 1 ч. 46 м.
Битрейт : 115 бит/сек
Count of elements : 1404
Размер потока : 89,5 Кбайт (0%)
Заголовок : русские
Язык : Russian
Default : Нет
Forced : Нет

Текст #2
Идентификатор : 6
Формат : UTF-8
Идентификатор кодека : S_TEXT/UTF8
Идентификатор кодека/Информация : UTF-8 Plain Text
Продолжительность : 1 ч. 48 м.
Битрейт : 58 бит/сек
Count of elements : 1493
Размер потока : 46,0 Кбайт (0%)
Заголовок : английские
Язык : English
Default : Нет
Forced : Нет

Меню
00:00:00.000 : :Chapter 01
00:10:18.125 : :Chapter 02
00:16:57.707 : :Chapter 03
00:22:10.040 : :Chapter 04
00:35:16.625 : :Chapter 05
00:45:05.625 : :Chapter 06
00:58:43.125 : :Chapter 07
01:06:45.083 : :Chapter 08
01:16:43.457 : :Chapter 09
01:25:35.541 : :Chapter 10
01:31:56.082 : :Chapter 11
01:43:09.666 : :Chapter 12
01:53:27.957 : :Chapter 13
pb.wtf



Скачать Высокие каблуки через торрент http://s019.radikal.ru/i609/1701/37/00fc35a04221.jpg Скачать фильм Высокие каблуки через торрент бесплантно в хорошем качестве Описание: Мать и дочь оказываются замешанными в таинственном убийстве. Его расследование проливает свет на их запутанные отношения как ... 8.2 10 5
Info! Золотая раздача, скачанное не засчитывается.
Торрент: Зарегистрирован [2017-01-07 08:07] · скачан: 37 раз
Статус: √ проверено
Размер: 5.87 GB
Как cкачать? Как скачать Высокие каблуки через торрент | qTorrent

% Раздел Тема Автор DL S | L
Фильмы [HD 720p, 1080p] (Хороший звук DUB, MVO) [ 16 GB ] Высокие каблуки / Tacones lejanos [1991 BDRip 1080p by msltel] MVO VO msltel Скачать
1 | 0

28-11-2019 20:33  

Отключить всю рекламу на сайте

    Дорогой пользователь! Огромная просьба, поблагодарите релизера, оцените раздачу и оставьте свои комментарий, если Вы скачали Высокие каблуки через торрент бесплатно! Внесите свою лепту в развитие PiratBit!
    Комментировать посты могут только пользователи прошедшие не сложную регистрацию
    Показать сообщения:    

    Высокие каблуки через торрент
    Скачать бесплатно Высокие каблуки
    Высокие каблуки скачать торрент
    Высокие каблуки смотреть онлайн
    Cкачать фильм Высокие каблуки бесплатно
    Высокие каблуки скачать торрент в хорошем качестве
    Высокие каблуки смотреть онлайн бесплатно в хорошем качестве


    Вы не можете начинать темы
    Вы не можете отвечать на сообщения
    Вы не можете редактировать свои сообщения
    Вы не можете удалять свои сообщения
    Вы не можете голосовать в опросах
    Вы не можете прикреплять файлы к сообщениям
    Вы можете скачивать файлы